  0
SECTION
  2
HEADER
  9
$ACADVER
  1
AC1015
  9
$ACADMAINTVER
 70
     6
  9
$DWGCODEPAGE
  3
ANSI_1252
  9
$INSBASE
 10
0.0
 20
0.0
 30
0.0
  9
$EXTMIN
 10
37.01609343609776
 20
439.1601102983129
 30
0.0
  9
$EXTMAX
 10
592.0160934360978
 20
840.1601102983129
 30
0.0
  9
$LIMMIN
 10
0.0
 20
0.0
  9
$LIMMAX
 10
12.0
 20
9.0
  9
$ORTHOMODE
 70
     0
  9
$REGENMODE
 70
     1
  9
$FILLMODE
 70
     1
  9
$QTEXTMODE
 70
     0
  9
$MIRRTEXT
 70
     1
  9
$LTSCALE
 40
1.0
  9
$ATTMODE
 70
     1
  9
$TEXTSIZE
 40
0.2
  9
$TRACEWID
 40
0.05
  9
$TEXTSTYLE
  7
Standard
  9
$CLAYER
  8
0
  9
$CELTYPE
  6
ByLayer
  9
$CECOLOR
 62
   256
  9
$CELTSCALE
 40
1.0
  9
$DISPSILH
 70
     0
  9
$DIMSCALE
 40
1.0
  9
$DIMASZ
 40
0.18
  9
$DIMEXO
 40
0.0625
  9
$DIMDLI
 40
0.38
  9
$DIMRND
 40
0.0
  9
$DIMDLE
 40
0.0
  9
$DIMEXE
 40
0.18
  9
$DIMTP
 40
0.0
  9
$DIMTM
 40
0.0
  9
$DIMTXT
 40
0.18
  9
$DIMCEN
 40
0.09
  9
$DIMTSZ
 40
0.0
  9
$DIMTOL
 70
     0
  9
$DIMLIM
 70
     0
  9
$DIMTIH
 70
     1
  9
$DIMTOH
 70
     1
  9
$DIMSE1
 70
     0
  9
$DIMSE2
 70
     0
  9
$DIMTAD
 70
     0
  9
$DIMZIN
 70
     0
  9
$DIMBLK
  1

  9
$DIMASO
 70
     1
  9
$DIMSHO
 70
     1
  9
$DIMPOST
  1

  9
$DIMAPOST
  1

  9
$DIMALT
 70
     0
  9
$DIMALTD
 70
     2
  9
$DIMALTF
 40
25.4
  9
$DIMLFAC
 40
1.0
  9
$DIMTOFL
 70
     0
  9
$DIMTVP
 40
0.0
  9
$DIMTIX
 70
     0
  9
$DIMSOXD
 70
     0
  9
$DIMSAH
 70
     0
  9
$DIMBLK1
  1

  9
$DIMBLK2
  1

  9
$DIMSTYLE
  2
Standard
  9
$DIMCLRD
 70
     0
  9
$DIMCLRE
 70
     0
  9
$DIMCLRT
 70
     0
  9
$DIMTFAC
 40
1.0
  9
$DIMGAP
 40
0.09
  9
$DIMJUST
 70
     0
  9
$DIMSD1
 70
     0
  9
$DIMSD2
 70
     0
  9
$DIMTOLJ
 70
     1
  9
$DIMTZIN
 70
     0
  9
$DIMALTZ
 70
     0
  9
$DIMALTTZ
 70
     0
  9
$DIMUPT
 70
     0
  9
$DIMDEC
 70
     4
  9
$DIMTDEC
 70
     4
  9
$DIMALTU
 70
     2
  9
$DIMALTTD
 70
     2
  9
$DIMTXSTY
  7
Standard
  9
$DIMAUNIT
 70
     0
  9
$DIMADEC
 70
     0
  9
$DIMALTRND
 40
0.0
  9
$DIMAZIN
 70
     0
  9
$DIMDSEP
 70
    46
  9
$DIMATFIT
 70
     3
  9
$DIMFRAC
 70
     0
  9
$DIMLDRBLK
  1

  9
$DIMLUNIT
 70
     2
  9
$DIMLWD
 70
    -2
  9
$DIMLWE
 70
    -2
  9
$DIMTMOVE
 70
     0
  9
$LUNITS
 70
     2
  9
$LUPREC
 70
     4
  9
$SKETCHINC
 40
0.1
  9
$FILLETRAD
 40
0.5
  9
$AUNITS
 70
     0
  9
$AUPREC
 70
     0
  9
$MENU
  1
.
  9
$ELEVATION
 40
0.0
  9
$PELEVATION
 40
0.0
  9
$THICKNESS
 40
0.0
  9
$LIMCHECK
 70
     0
  9
$CHAMFERA
 40
0.5
  9
$CHAMFERB
 40
0.5
  9
$CHAMFERC
 40
1.0
  9
$CHAMFERD
 40
0.0
  9
$SKPOLY
 70
     0
  9
$TDCREATE
 40
2456997.556384514
  9
$TDUCREATE
 40
2456997.514717847
  9
$TDUPDATE
 40
2456997.556384687
  9
$TDUUPDATE
 40
2456997.514718021
  9
$TDINDWG
 40
0.0000000116
  9
$TDUSRTIMER
 40
0.0000000116
  9
$USRTIMER
 70
     1
  9
$ANGBASE
 50
0.0
  9
$ANGDIR
 70
     0
  9
$PDMODE
 70
     0
  9
$PDSIZE
 40
0.0
  9
$PLINEWID
 40
0.0
  9
$SPLFRAME
 70
     0
  9
$SPLINETYPE
 70
     6
  9
$SPLINESEGS
 70
     8
  9
$HANDSEED
  5
2AC
  9
$SURFTAB1
 70
     6
  9
$SURFTAB2
 70
     6
  9
$SURFTYPE
 70
     6
  9
$SURFU
 70
     6
  9
$SURFV
 70
     6
  9
$UCSBASE
  2

  9
$UCSNAME
  2

  9
$UCSORG
 10
0.0
 20
0.0
 30
0.0
  9
$UCSXDIR
 10
1.0
 20
0.0
 30
0.0
  9
$UCSYDIR
 10
0.0
 20
1.0
 30
0.0
  9
$UCSORTHOREF
  2

  9
$UCSORTHOVIEW
 70
     0
  9
$UCSORGTOP
 10
0.0
 20
0.0
 30
0.0
  9
$UCSORGBOTTOM
 10
0.0
 20
0.0
 30
0.0
  9
$UCSORGLEFT
 10
0.0
 20
0.0
 30
0.0
  9
$UCSORGRIGHT
 10
0.0
 20
0.0
 30
0.0
  9
$UCSORGFRONT
 10
0.0
 20
0.0
 30
0.0
  9
$UCSORGBACK
 10
0.0
 20
0.0
 30
0.0
  9
$PUCSBASE
  2

  9
$PUCSNAME
  2

  9
$PUCSORG
 10
0.0
 20
0.0
 30
0.0
  9
$PUCSXDIR
 10
1.0
 20
0.0
 30
0.0
  9
$PUCSYDIR
 10
0.0
 20
1.0
 30
0.0
  9
$PUCSORTHOREF
  2

  9
$PUCSORTHOVIEW
 70
     0
  9
$PUCSORGTOP
 10
0.0
 20
0.0
 30
0.0
  9
$PUCSORGBOTTOM
 10
0.0
 20
0.0
 30
0.0
  9
$PUCSORGLEFT
 10
0.0
 20
0.0
 30
0.0
  9
$PUCSORGRIGHT
 10
0.0
 20
0.0
 30
0.0
  9
$PUCSORGFRONT
 10
0.0
 20
0.0
 30
0.0
  9
$PUCSORGBACK
 10
0.0
 20
0.0
 30
0.0
  9
$USERI1
 70
     0
  9
$USERI2
 70
     0
  9
$USERI3
 70
     0
  9
$USERI4
 70
     0
  9
$USERI5
 70
     0
  9
$USERR1
 40
18.1
  9
$USERR2
 40
0.0
  9
$USERR3
 40
0.0
  9
$USERR4
 40
0.0
  9
$USERR5
 40
0.0
  9
$WORLDVIEW
 70
     1
  9
$SHADEDGE
 70
     3
  9
$SHADEDIF
 70
    70
  9
$TILEMODE
 70
     1
  9
$MAXACTVP
 70
    64
  9
$PINSBASE
 10
0.0
 20
0.0
 30
0.0
  9
$PLIMCHECK
 70
     0
  9
$PEXTMIN
 10
1.00000000000000E+20
 20
1.00000000000000E+20
 30
1.00000000000000E+20
  9
$PEXTMAX
 10
-1.00000000000000E+20
 20
-1.00000000000000E+20
 30
-1.00000000000000E+20
  9
$PLIMMIN
 10
0.0
 20
0.0
  9
$PLIMMAX
 10
12.0
 20
9.0
  9
$UNITMODE
 70
     0
  9
$VISRETAIN
 70
     1
  9
$PLINEGEN
 70
     0
  9
$PSLTSCALE
 70
     1
  9
$TREEDEPTH
 70
  3020
  9
$CMLSTYLE
  2
Standard
  9
$CMLJUST
 70
     0
  9
$CMLSCALE
 40
1.0
  9
$PROXYGRAPHICS
 70
     1
  9
$MEASUREMENT
 70
     1
  9
$CELWEIGHT
370
    -1
  9
$ENDCAPS
280
     0
  9
$JOINSTYLE
280
     0
  9
$LWDISPLAY
290
     0
  9
$INSUNITS
 70
     4
  9
$HYPERLINKBASE
  1

  9
$STYLESHEET
  1

  9
$XEDIT
290
     1
  9
$CEPSNTYPE
380
     0
  9
$PSTYLEMODE
290
     1
  9
$FINGERPRINTGUID
  2
{1482C203-24A1-4749-B5AC-9DE9C9D7D9F7}
  9
$VERSIONGUID
  2
{FAEB1C32-E019-11D5-929B-00C0DF256EC4}
  9
$EXTNAMES
290
     1
  9
$PSVPSCALE
 40
0.0
  9
$OLESTARTUP
290
     0
  0
ENDSEC
  0
SECTION
  2
CLASSES
  0
CLASS
  1
ACDBDICTIONARYWDFLT
  2
AcDbDictionaryWithDefault
  3
ObjectDBX Classes
 90
        0
280
     0
281
     0
  0
CLASS
  1
VISUALSTYLE
  2
AcDbVisualStyle
  3
ObjectDBX Classes
 90
     4095
280
     0
281
     0
  0
CLASS
  1
MATERIAL
  2
AcDbMaterial
  3
ObjectDBX Classes
 90
     1153
280
     0
281
     0
  0
CLASS
  1
DICTIONARYVAR
  2
AcDbDictionaryVar
  3
ObjectDBX Classes
 90
        0
280
     0
281
     0
  0
CLASS
  1
ACDBPLACEHOLDER
  2
AcDbPlaceHolder
  3
ObjectDBX Classes
 90
        0
280
     0
281
     0
  0
CLASS
  1
LAYOUT
  2
AcDbLayout
  3
ObjectDBX Classes
 90
        0
280
     0
281
     0
  0
ENDSEC
  0
SECTION
  2
TABLES
  0
TABLE
  2
VPORT
  5
8
330
0
100
AcDbSymbolTable
 70
     1
  0
VPORT
  5
29
330
8
100
AcDbSymbolTableRecord
100
AcDbViewportTableRecord
  2
*Active
 70
     0
 10
0.0
 20
0.0
 11
1.0
 21
1.0
 12
314.5160934360978
 22
639.6601102983129
 13
0.0
 23
0.0
 14
0.5
 24
0.5
 15
0.5
 25
0.5
 16
0.0
 26
0.0
 36
1.0
 17
0.0
 27
0.0
 37
0.0
 40
441.1000000000001
 41
1.60267857142857
 42
50.0
 43
0.0
 44
0.0
 50
0.0
 51
0.0
 71
     0
 72
   100
 73
     1
 74
     3
 75
     0
 76
     0
 77
     0
 78
     0
281
     0
 65
     1
110
0.0
120
0.0
130
0.0
111
1.0
121
0.0
131
0.0
112
0.0
122
1.0
132
0.0
 79
     0
146
0.0
  0
ENDTAB
  0
TABLE
  2
LTYPE
  5
5
330
0
100
AcDbSymbolTable
 70
     9
  0
LTYPE
  5
14
330
5
100
AcDbSymbolTableRecord
100
AcDbLinetypeTableRecord
  2
ByBlock
 70
     0
  3

 72
    65
 73
     0
 40
0.0
  0
LTYPE
  5
15
330
5
100
AcDbSymbolTableRecord
100
AcDbLinetypeTableRecord
  2
ByLayer
 70
     0
  3

 72
    65
 73
     0
 40
0.0
  0
LTYPE
  5
16
330
5
100
AcDbSymbolTableRecord
100
AcDbLinetypeTableRecord
  2
Continuous
 70
     0
  3
Solid line
 72
    65
 73
     0
 40
0.0
  0
LTYPE
  5
3F
330
5
100
AcDbSymbolTableRecord
100
AcDbLinetypeTableRecord
  2
DASHED
 70
     0
  3
Dashed
 72
    65
 73
     2
 40
15.0
 49
7.0
 74
     0
 49
-8.0
 74
     0
  0
LTYPE
  5
40
330
5
100
AcDbSymbolTableRecord
100
AcDbLinetypeTableRecord
  2
DOTTED
 70
     0
  3
Dotted
 72
    65
 73
     2
 40
1.0
 49
0.0
 74
     0
 49
-1.0
 74
     0
  0
LTYPE
  5
41
330
5
100
AcDbSymbolTableRecord
100
AcDbLinetypeTableRecord
  2
DOT_CENTER
 70
     0
  3
Dot_Center
 72
    65
 73
     4
 40
14.0
 49
12.0
 74
     0
 49
-1.0
 74
     0
 49
0.0
 74
     0
 49
-1.0
 74
     0
  0
LTYPE
  5
42
330
5
100
AcDbSymbolTableRecord
100
AcDbLinetypeTableRecord
  2
LONG_DASHED
 70
     0
  3
Long_Dashed
 72
    65
 73
     2
 40
15.0
 49
10.0
 74
     0
 49
-5.0
 74
     0
  0
LTYPE
  5
43
330
5
100
AcDbSymbolTableRecord
100
AcDbLinetypeTableRecord
  2
DASH_CENTER
 70
     0
  3
Dash_Center
 72
    65
 73
     4
 40
14.0
 49
11.0
 74
     0
 49
-1.0
 74
     0
 49
1.0
 74
     0
 49
-1.0
 74
     0
  0
LTYPE
  5
44
330
5
100
AcDbSymbolTableRecord
100
AcDbLinetypeTableRecord
  2
PHANTOM
 70
     0
  3
Phantom
 72
    65
 73
     6
 40
13.0
 49
10.0
 74
     0
 49
-1.0
 74
     0
 49
0.0
 74
     0
 49
-1.0
 74
     0
 49
0.0
 74
     0
 49
-1.0
 74
     0
  0
LTYPE
  5
45
330
5
100
AcDbSymbolTableRecord
100
AcDbLinetypeTableRecord
  2
CENTER_DASH_DASH
 70
     0
  3
Center_Dash_Dash
 72
    65
 73
     6
 40
14.0
 49
9.0
 74
     0
 49
-1.0
 74
     0
 49
1.0
 74
     0
 49
-1.0
 74
     0
 49
1.0
 74
     0
 49
-1.0
 74
     0
  0
LTYPE
  5
46
330
5
100
AcDbSymbolTableRecord
100
AcDbLinetypeTableRecord
  2
CHAIN
 70
     0
  3
CHAIN
 72
    65
 73
     4
 40
4.0
 49
1.0
 74
     0
 49
-1.0
 74
     0
 49
1.0
 74
     0
 49
-1.0
 74
     0
  0
ENDTAB
  0
TABLE
  2
LAYER
  5
2
330
0
100
AcDbSymbolTable
 70
    14
  0
LAYER
  5
10
330
2
100
AcDbSymbolTableRecord
100
AcDbLayerTableRecord
  2
0
 70
     0
 62
     7
  6
Continuous
370
    -3
390
F
  0
LAYER
  5
47
330
2
100
AcDbSymbolTableRecord
100
AcDbLayerTableRecord
  2
Bemaßungen_TC_020513_DIN_
 70
     0
 62
     7
  6
Continuous
370
    -3
390
F
  0
LAYER
  5
48
330
2
100
AcDbSymbolTableRecord
100
AcDbLayerTableRecord
  2
Bemaßungen_TC_020513_DIN0
 70
     0
 62
     7
  6
Continuous
370
    -3
390
F
  0
LAYER
  5
49
330
2
100
AcDbSymbolTableRecord
100
AcDbLayerTableRecord
  2
Mittellinie_TC_020513_DIN_
 70
     0
 62
     7
  6
Continuous
370
    -3
390
F
  0
LAYER
  5
4A
330
2
100
AcDbSymbolTableRecord
100
AcDbLayerTableRecord
  2
Mittellinie_TC_020513_DIN0
 70
     0
 62
     7
  6
Continuous
370
    -3
390
F
  0
LAYER
  5
4B
330
2
100
AcDbSymbolTableRecord
100
AcDbLayerTableRecord
  2
Mittelpunktmarkierung_TC_020513_DIN_
 70
     0
 62
     7
  6
Continuous
370
    -3
390
F
  0
LAYER
  5
4C
330
2
100
AcDbSymbolTableRecord
100
AcDbLayerTableRecord
  2
Mittelpunktmarkierung_TC_020513_DIN0
 70
     0
 62
     7
  6
Continuous
370
    -3
390
F
  0
LAYER
  5
4D
330
2
100
AcDbSymbolTableRecord
100
AcDbLayerTableRecord
  2
Schraffur
 70
     0
 62
     7
  6
Continuous
370
    -3
390
F
  0
LAYER
  5
4E
330
2
100
AcDbSymbolTableRecord
100
AcDbLayerTableRecord
  2
Sichtbare_Kanten_TC_020513_DIN_
 70
     0
 62
     7
  6
Continuous
370
    -3
390
F
  0
LAYER
  5
4F
330
2
100
AcDbSymbolTableRecord
100
AcDbLayerTableRecord
  2
Skizziergeometrie_ISO_
 70
     0
 62
     7
  6
Continuous
370
    -3
390
F
  0
LAYER
  5
50
330
2
100
AcDbSymbolTableRecord
100
AcDbLayerTableRecord
  2
Skizziergeometrie_TC_020513_DIN_
 70
     0
 62
     7
  6
Continuous
370
    -3
390
F
  0
LAYER
  5
51
330
2
100
AcDbSymbolTableRecord
100
AcDbLayerTableRecord
  2
Symbole_ISO_
 70
     0
 62
     7
  6
Continuous
370
    -3
390
F
  0
LAYER
  5
52
330
2
100
AcDbSymbolTableRecord
100
AcDbLayerTableRecord
  2
Symbole_TC_020513_DIN_
 70
     0
 62
     7
  6
Continuous
370
    -3
390
F
  0
LAYER
  5
53
330
2
100
AcDbSymbolTableRecord
100
AcDbLayerTableRecord
  2
Symbole_ISO0
 70
     0
 62
     7
  6
Continuous
370
    -3
390
F
  0
ENDTAB
  0
TABLE
  2
STYLE
  5
3
330
0
100
AcDbSymbolTable
 70
     6
  0
STYLE
  5
11
330
3
100
AcDbSymbolTableRecord
100
AcDbTextStyleTableRecord
  2
Standard
 70
     0
 40
0.0
 41
1.0
 50
0.0
 71
     0
 42
0.2
  3
txt
  4

  0
STYLE
  5
69
330
3
100
AcDbSymbolTableRecord
100
AcDbTextStyleTableRecord
  2
CONVERTER_11
 70
     0
 40
0.0
 41
0.75
 50
0.0
 71
     0
 42
0.2
  3
txt.shx
  4

  0
STYLE
  5
CB
330
3
100
AcDbSymbolTableRecord
100
AcDbTextStyleTableRecord
  2
CONVERTER_12
 70
     0
 40
0.0
 41
0.59999996423721
 50
0.0
 71
     0
 42
0.2
  3
txt.shx
  4

  0
STYLE
  5
CD
330
3
100
AcDbSymbolTableRecord
100
AcDbTextStyleTableRecord
  2
CONVERTER_13
 70
     0
 40
0.0
 41
0.67499998211861
 50
0.0
 71
     0
 42
0.2
  3
txt.shx
  4

  0
STYLE
  5
225
330
3
100
AcDbSymbolTableRecord
100
AcDbTextStyleTableRecord
  2
CONVERTER_14
 70
     0
 40
0.0
 41
0.46875
 50
0.0
 71
     0
 42
0.2
  3
txt.shx
  4

  0
STYLE
  5
227
330
3
100
AcDbSymbolTableRecord
100
AcDbTextStyleTableRecord
  2
CONVERTER_15
 70
     0
 40
0.0
 41
0.56249996647239
 50
0.0
 71
     0
 42
0.2
  3
txt.shx
  4

  0
ENDTAB
  0
TABLE
  2
VIEW
  5
6
330
0
100
AcDbSymbolTable
 70
     0
  0
ENDTAB
  0
TABLE
  2
UCS
  5
7
330
0
100
AcDbSymbolTable
 70
     0
  0
ENDTAB
  0
TABLE
  2
APPID
  5
9
330
0
100
AcDbSymbolTable
 70
     1
  0
APPID
  5
12
330
9
100
AcDbSymbolTableRecord
100
AcDbRegAppTableRecord
  2
ACAD
 70
     0
  0
ENDTAB
  0
TABLE
  2
DIMSTYLE
  5
A
330
0
100
AcDbSymbolTable
 70
     9
100
AcDbDimStyleTable
  0
DIMSTYLE
105
27
330
A
100
AcDbSymbolTableRecord
100
AcDbDimStyleTableRecord
  2
Standard
 70
     0
178
     0
340
11
  0
DIMSTYLE
105
232
102
{ACAD_REACTORS
330
233
102
}
330
A
100
AcDbSymbolTableRecord
100
AcDbDimStyleTableRecord
  2
ME10_DIM_10
 70
     0
 41
5.0
 42
2.0
 44
4.0
 73
     0
 74
     0
 77
     1
 78
    12
140
7.0
147
0.8
172
     1
173
     1
174
     1
175
     1
176
     7
177
     7
271
     2
178
     7
271
     2
340
225
  0
DIMSTYLE
105
23D
102
{ACAD_REACTORS
330
23E
102
}
330
A
100
AcDbSymbolTableRecord
100
AcDbDimStyleTableRecord
  2
ME10_DIM_11
 70
     0
 41
5.0
 42
2.0
 44
4.0
 73
     0
 74
     0
 77
     1
 78
    12
140
7.0
147
0.8
172
     1
173
     1
174
     1
175
     1
176
     7
177
     7
271
     2
178
     7
271
     2
340
225
  0
DIMSTYLE
105
248
102
{ACAD_REACTORS
330
249
102
}
330
A
100
AcDbSymbolTableRecord
100
AcDbDimStyleTableRecord
  2
ME10_DIM_12
 70
     0
 41
5.0
 42
2.0
 44
4.0
 73
     0
 74
     0
 77
     1
 78
    12
140
7.0
147
0.8
172
     1
173
     1
174
     1
175
     1
176
     7
177
     7
271
     2
178
     7
271
     2
340
225
  0
DIMSTYLE
105
253
102
{ACAD_REACTORS
330
254
102
}
330
A
100
AcDbSymbolTableRecord
100
AcDbDimStyleTableRecord
  2
ME10_DIM_13
 70
     0
 41
5.0
 42
2.0
 44
4.0
 73
     0
 74
     0
 77
     1
 78
    12
140
7.0
147
0.8
172
     1
173
     1
174
     1
175
     1
176
     7
177
     7
271
     2
178
     7
271
     2
340
225
  0
DIMSTYLE
105
25E
102
{ACAD_REACTORS
330
25F
102
}
330
A
100
AcDbSymbolTableRecord
100
AcDbDimStyleTableRecord
  2
ME10_DIM_14
 70
     0
 41
5.0
 42
2.0
 44
4.0
 73
     0
 74
     0
 77
     1
 78
    12
140
7.0
147
0.8
172
     1
173
     1
174
     1
175
     1
176
     7
177
     7
271
     2
178
     7
271
     2
340
69
  0
DIMSTYLE
105
269
102
{ACAD_REACTORS
330
26A
102
}
330
A
100
AcDbSymbolTableRecord
100
AcDbDimStyleTableRecord
  2
ME10_DIM_15
 70
     0
 41
5.0
 42
2.0
 44
4.0
 73
     0
 74
     0
 77
     1
 78
    12
140
7.0
147
0.8
172
     1
173
     1
174
     1
175
     1
176
     7
177
     7
271
     2
178
     7
271
     2
340
69
  0
DIMSTYLE
105
274
102
{ACAD_REACTORS
330
275
102
}
330
A
100
AcDbSymbolTableRecord
100
AcDbDimStyleTableRecord
  2
ME10_DIM_16
 70
     0
 41
5.0
 42
2.0
 44
4.0
 73
     0
 74
     0
 77
     1
 78
    12
140
7.0
147
0.8
172
     1
173
     1
174
     1
175
     1
176
     7
177
     7
271
     2
178
     7
271
     2
340
69
  0
DIMSTYLE
105
27F
102
{ACAD_REACTORS
330
280
102
}
330
A
100
AcDbSymbolTableRecord
100
AcDbDimStyleTableRecord
  2
ME10_DIM_17
 70
     0
 41
5.0
 42
2.0
 44
4.0
 73
     0
 74
     0
 77
     1
 78
    12
140
7.0
147
0.8
172
     1
173
     1
174
     1
175
     1
176
     7
177
     7
271
     2
178
     7
271
     2
340
69
  0
ENDTAB
  0
TABLE
  2
BLOCK_RECORD
  5
1
330
0
100
AcDbSymbolTable
 70
    12
  0
BLOCK_RECORD
  5
1F
330
1
100
AcDbSymbolTableRecord
100
AcDbBlockTableRecord
  2
*Model_Space
340
22
  0
BLOCK_RECORD
  5
1B
330
1
100
AcDbSymbolTableRecord
100
AcDbBlockTableRecord
  2
*Paper_Space
340
1E
  0
BLOCK_RECORD
  5
23
330
1
100
AcDbSymbolTableRecord
100
AcDbBlockTableRecord
  2
*Paper_Space0
340
26
  0
BLOCK_RECORD
  5
54
330
1
100
AcDbSymbolTableRecord
100
AcDbBlockTableRecord
  2
_D19
340
0
102
{BLKREFS
331
5D
102
}
  0
BLOCK_RECORD
  5
57
330
1
100
AcDbSymbolTableRecord
100
AcDbBlockTableRecord
  2
Schriftfelder_Ilme
340
0
102
{BLKREFS
331
5E
102
}
  0
BLOCK_RECORD
  5
5A
330
1
100
AcDbSymbolTableRecord
100
AcDbBlockTableRecord
  2
Ränder_Ilme_Rahmen_A4_quer
340
0
102
{BLKREFS
331
5F
102
}
  0
BLOCK_RECORD
  5
229
330
1
100
AcDbSymbolTableRecord
100
AcDbBlockTableRecord
  2
*D4
340
0
  0
BLOCK_RECORD
  5
234
330
1
100
AcDbSymbolTableRecord
100
AcDbBlockTableRecord
  2
*D5
340
0
  0
BLOCK_RECORD
  5
23F
330
1
100
AcDbSymbolTableRecord
100
AcDbBlockTableRecord
  2
*D6
340
0
  0
BLOCK_RECORD
  5
24A
330
1
100
AcDbSymbolTableRecord
100
AcDbBlockTableRecord
  2
*D7
340
0
  0
BLOCK_RECORD
  5
255
330
1
100
AcDbSymbolTableRecord
100
AcDbBlockTableRecord
  2
*D8
340
0
  0
BLOCK_RECORD
  5
260
330
1
100
AcDbSymbolTableRecord
100
AcDbBlockTableRecord
  2
*D9
340
0
  0
BLOCK_RECORD
  5
26B
330
1
100
AcDbSymbolTableRecord
100
AcDbBlockTableRecord
  2
*D10
340
0
  0
BLOCK_RECORD
  5
276
330
1
100
AcDbSymbolTableRecord
100
AcDbBlockTableRecord
  2
*D11
340
0
  0
ENDTAB
  0
ENDSEC
  0
SECTION
  2
BLOCKS
  0
BLOCK
  5
20
330
1F
100
AcDbEntity
  8
0
100
AcDbBlockBegin
  2
*Model_Space
 70
     0
 10
0.0
 20
0.0
 30
0.0
  3
*Model_Space
  1

  0
ENDBLK
  5
21
330
1F
100
AcDbEntity
  8
0
100
AcDbBlockEnd
  0
BLOCK
  5
1C
330
1B
100
AcDbEntity
 67
     1
  8
0
100
AcDbBlockBegin
  2
*Paper_Space
 70
     0
 10
0.0
 20
0.0
 30
0.0
  3
*Paper_Space
  1

  0
ENDBLK
  5
1D
330
1B
100
AcDbEntity
 67
     1
  8
0
100
AcDbBlockEnd
  0
BLOCK
  5
24
330
23
100
AcDbEntity
  8
0
100
AcDbBlockBegin
  2
*Paper_Space0
 70
     0
 10
0.0
 20
0.0
 30
0.0
  3
*Paper_Space0
  1

  0
ENDBLK
  5
25
330
23
100
AcDbEntity
  8
0
100
AcDbBlockEnd
  0
BLOCK
  5
55
330
54
100
AcDbEntity
  8
0
100
AcDbBlockBegin
  2
_D19
 70
     0
 10
17.5160934360978
 20
419.660110298313
 30
0.0
  3
_D19
  1

  0
LWPOLYLINE
  5
60
330
54
100
AcDbEntity
  8
Bemaßungen_TC_020513_DIN_
  6
Continuous
 62
     7
100
AcDbPolyline
 90
        2
 70
     0
 43
0.25
 10
134.9974323631808
 20
715.496915078078
 10
130.6673053442578
 20
712.9969150780789
  0
LWPOLYLINE
  5
61
330
54
100
AcDbEntity
  8
Bemaßungen_TC_020513_DIN_
  6
Continuous
 62
     7
100
AcDbPolyline
 90
        2
 70
     0
 43
0.25
 10
147.5548007180558
 20
722.746915078077
 10
173.1069296882198
 20
737.4994436173649
  0
LWPOLYLINE
  5
62
330
54
100
AcDbEntity
  8
Bemaßungen_TC_020513_DIN_
  6
Continuous
 62
     7
100
AcDbPolyline
 90
        2
 70
     0
 43
0.25
 10
139.3275593821028
 20
717.996915078078
 10
143.2246736991338
 20
720.246915078077
  0
LWPOLYLINE
  5
63
102
{ACAD_REACTORS
330
6B
102
}
330
54
100
AcDbEntity
  8
Bemaßungen_TC_020513_DIN_
  6
Continuous
 62
     7
100
AcDbPolyline
 90
        2
 70
     0
 43
0.25
 10
135.4140990298468
 20
714.7752272415911
 10
134.5807656965138
 20
716.218602914565
  0
LWPOLYLINE
  5
64
102
{ACAD_REACTORS
330
6B
102
}
330
54
100
AcDbEntity
  8
Bemaßungen_TC_020513_DIN_
  6
Continuous
 62
     7
100
AcDbPolyline
 90
        2
 70
     0
 43
0.25
 10
134.5807656965138
 20
716.218602914565
 10
139.3275593821028
 20
717.996915078078
  0
LWPOLYLINE
  5
65
102
{ACAD_REACTORS
330
6B
102
}
330
54
100
AcDbEntity
  8
Bemaßungen_TC_020513_DIN_
  6
Continuous
 62
     7
100
AcDbPolyline
 90
        2
 70
     0
 43
0.25
 10
139.3275593821028
 20
717.996915078078
 10
135.4140990298468
 20
714.7752272415911
  0
LWPOLYLINE
  5
66
102
{ACAD_REACTORS
330
6C
102
}
330
54
100
AcDbEntity
  8
Bemaßungen_TC_020513_DIN_
  6
Continuous
 62
     7
100
AcDbPolyline
 90
        2
 70
     0
 43
0.25
 10
147.9714673847228
 20
722.0252272415898
 10
147.1381340513898
 20
723.4686029145639
  0
LWPOLYLINE
  5
67
102
{ACAD_REACTORS
330
6C
102
}
330
54
100
AcDbEntity
  8
Bemaßungen_TC_020513_DIN_
  6
Continuous
 62
     7
100
AcDbPolyline
 90
        2
 70
     0
 43
0.25
 10
147.1381340513898
 20
723.4686029145639
 10
143.2246736991338
 20
720.246915078077
  0
LWPOLYLINE
  5
68
102
{ACAD_REACTORS
330
6C
102
}
330
54
100
AcDbEntity
  8
Bemaßungen_TC_020513_DIN_
  6
Continuous
 62
     7
100
AcDbPolyline
 90
        2
 70
     0
 43
0.25
 10
143.2246736991338
 20
720.246915078077
 10
147.9714673847228
 20
722.0252272415898
  0
MTEXT
  5
6A
330
54
100
AcDbEntity
  8
Bemaßungen_TC_020513_DIN_
 62
     7
100
AcDbMText
 10
148.9221006327178
 20
735.363421143334
 30
0.0
 40
7.0
 41
0.0
 71
     1
 72
     1
  1
{\Fgdt;n}4,5
  7
CONVERTER_11
 11
0.8660254037844936
 21
0.4999999999999049
 31
0.0
 73
     1
 44
0.75727272727273
  0
HATCH
  5
6B
330
54
100
AcDbEntity
  8
Bemaßungen_TC_020513_DIN_
  6
Continuous
 62
     7
100
AcDbHatch
 10
0.0
 20
0.0
 30
0.0
210
0.0
220
0.0
230
1.0
  2
SOLID
 70
     1
 71
     1
 91
        1
 92
        1
 93
        3
 72
     1
 10
135.4140990298468
 20
714.7752272415911
 11
134.5807656965138
 21
716.218602914565
 72
     1
 10
134.5807656965138
 20
716.218602914565
 11
139.3275593821028
 21
717.996915078078
 72
     1
 10
139.3275593821028
 20
717.996915078078
 11
135.4140990298468
 21
714.7752272415911
 97
        3
330
63
330
64
330
65
 75
     0
 76
     1
 98
        1
 10
0.0
 20
0.0
  0
HATCH
  5
6C
330
54
100
AcDbEntity
  8
Bemaßungen_TC_020513_DIN_
  6
Continuous
 62
     7
100
AcDbHatch
 10
0.0
 20
0.0
 30
0.0
210
0.0
220
0.0
230
1.0
  2
SOLID
 70
     1
 71
     1
 91
        1
 92
        1
 93
        3
 72
     1
 10
147.9714673847228
 20
722.0252272415898
 11
147.1381340513898
 21
723.4686029145639
 72
     1
 10
147.1381340513898
 20
723.4686029145639
 11
143.2246736991338
 21
720.246915078077
 72
     1
 10
143.2246736991338
 20
720.246915078077
 11
147.9714673847228
 21
722.0252272415898
 97
        3
330
66
330
67
330
68
 75
     0
 76
     1
 98
        1
 10
0.0
 20
0.0
  0
ENDBLK
  5
56
330
54
100
AcDbEntity
  8
0
100
AcDbBlockEnd
  0
BLOCK
  5
58
330
57
100
AcDbEntity
  8
0
100
AcDbBlockBegin
  2
Schriftfelder_Ilme
 70
     0
 10
0.0
 20
0.0
 30
0.0
  3
Schriftfelder_Ilme
  1

  0
LWPOLYLINE
  5
6D
330
57
100
AcDbEntity
  8
Skizziergeometrie_ISO_
  6
Continuous
 62
     7
100
AcDbPolyline
 90
        2
 70
     0
 43
0.5
 10
19.980189950303
 20
45.0006400926262
 10
19.980189950303
 20
10.0006400926262
  0
LWPOLYLINE
  5
6E
330
57
100
AcDbEntity
  8
Skizziergeometrie_ISO_
  6
Continuous
 62
     7
100
AcDbPolyline
 90
        2
 70
     0
 43
0.5
 10
189.655184537377
 20
14.2880685085818
 10
189.655184537377
 20
19.2535360148728
  0
LWPOLYLINE
  5
6F
330
57
100
AcDbEntity
  8
Skizziergeometrie_ISO_
  6
Continuous
 62
     7
100
AcDbPolyline
 90
        2
 70
     0
 43
0.5
 10
189.655184537377
 20
19.2535360148728
 10
188.7995275176
 20
17.7714945827671
  0
LWPOLYLINE
  5
70
330
57
100
AcDbEntity
  8
Skizziergeometrie_ISO_
  6
Continuous
 62
     7
100
AcDbPolyline
 90
        2
 70
     0
 43
0.5
 10
188.510852383006
 20
17.7714945827671
 10
187.655195363229
 20
19.2535360148728
  0
LWPOLYLINE
  5
71
330
57
100
AcDbEntity
  8
Skizziergeometrie_ISO_
  6
Continuous
 62
     7
100
AcDbPolyline
 90
        2
 70
     0
 43
0.5
 10
187.655195363229
 20
19.2535360148728
 10
187.655195363229
 20
15.8473707016896
  0
LWPOLYLINE
  5
72
330
57
100
AcDbEntity
  8
Skizziergeometrie_ISO_
  6
Continuous
 62
     7
100
AcDbPolyline
 90
        2
 70
     0
 43
0.5
 10
180.238754675162
 20
17.6450043569675
 10
188.655189950303
 20
22.500640092627
  0
LWPOLYLINE
  5
73
330
57
100
AcDbEntity
  8
Skizziergeometrie_ISO_
  6
Continuous
 62
     7
100
AcDbPolyline
 90
        2
 70
     0
 43
0.5
 10
188.655189950303
 20
22.500640092627
 10
197.071625225444
 20
17.6450043569675
  0
LWPOLYLINE
  5
74
330
57
100
AcDbEntity
  8
Skizziergeometrie_ISO_
  6
Continuous
 62
     7
100
AcDbPolyline
 90
        2
 70
     0
 43
0.5
 10
197.071625225444
 20
17.3562758282849
 10
188.655189950303
 20
12.5006400926254
  0
LWPOLYLINE
  5
75
330
57
100
AcDbEntity
  8
Skizziergeometrie_ISO_
  6
Continuous
 62
     7
100
AcDbPolyline
 90
        2
 70
     0
 43
0.5
 10
188.655189950303
 20
12.5006400926254
 10
180.238754675162
 20
17.3562758282849
  0
LWPOLYLINE
  5
76
330
57
100
AcDbEntity
  8
Skizziergeometrie_ISO_
  6
Continuous
 62
     7
100
AcDbPolyline
 90
        2
 70
     0
 43
0.5
 10
186.988528696563
 20
15.8473707016896
 10
186.988528696562
 20
20.7526980593071
  0
LWPOLYLINE
  5
77
330
57
100
AcDbEntity
  8
Skizziergeometrie_ISO_
  6
Continuous
 62
     7
100
AcDbPolyline
 90
        2
 70
     0
 43
0.5
 10
187.482962380186
 20
20.8851811655447
 10
188.655189950303
 20
18.8548234560689
  0
LWPOLYLINE
  5
78
330
57
100
AcDbEntity
  8
Skizziergeometrie_ISO_
  6
Continuous
 62
     7
100
AcDbPolyline
 90
        2
 70
     0
 43
0.5
 10
190.321851204044
 20
14.2880685085818
 10
190.321851204044
 20
20.752698059307
  0
LWPOLYLINE
  5
79
330
57
100
AcDbEntity
  8
Skizziergeometrie_ISO_
  6
Continuous
 62
     7
100
AcDbPolyline
 90
        2
 70
     0
 43
0.5
 10
189.82741752042
 20
20.8851811655447
 10
188.655189950303
 20
18.8548234560689
  0
LWPOLYLINE
  5
7A
330
57
100
AcDbEntity
  8
Skizziergeometrie_ISO_
  6
Continuous
 62
     7
100
AcDbPolyline
 90
        2
 70
     0
 43
0.5
 10
185.655190959106
 20
15.2706619304882
 10
185.655190959106
 20
19.9439783665993
  0
LWPOLYLINE
  5
7B
330
57
100
AcDbEntity
  8
Skizziergeometrie_ISO_
  6
Continuous
 62
     7
100
AcDbPolyline
 90
        2
 70
     0
 43
0.5
 10
186.321857625773
 20
19.9439783665993
 10
186.321857625773
 20
15.270660658657
  0
LWPOLYLINE
  5
7C
330
57
100
AcDbEntity
  8
Skizziergeometrie_ISO_
  6
Continuous
 62
     7
100
AcDbPolyline
 90
        2
 70
     0
 43
0.5
 10
186.321857625773
 20
15.270660658657
 10
188.489493932086
 20
14.0201012511681
  0
LWPOLYLINE
  5
7D
330
57
100
AcDbEntity
  8
Skizziergeometrie_ISO_
  6
Continuous
 62
     7
100
AcDbPolyline
 90
        2
 70
     0
 43
0.5
 10
188.15634562976
 20
13.4426441938023
 10
185.988710425088
 20
14.6932029657285
  0
LWPOLYLINE
  5
7E
330
57
100
AcDbEntity
  8
Skizziergeometrie_ISO_
  6
Continuous
 62
     7
100
AcDbPolyline
 90
        2
 70
     0
 43
0.5
 10
184.988523283636
 20
19.1539094835628
 10
184.988523283636
 20
15.8473707016896
  0
LWPOLYLINE
  5
7F
330
57
100
AcDbEntity
  8
Skizziergeometrie_ISO_
  6
Continuous
 62
     7
100
AcDbPolyline
 90
        2
 70
     0
 43
0.5
 10
184.32185661697
 20
15.8473707016896
 10
184.32185661697
 20
19.1539094835628
  0
LWPOLYLINE
  5
80
330
57
100
AcDbEntity
  8
Skizziergeometrie_ISO_
  6
Continuous
 62
     7
100
AcDbPolyline
 90
        2
 70
     0
 43
0.5
 10
191.48842975933
 20
20.2327068952822
 10
192.857882489926
 20
19.4426380122457
  0
LWPOLYLINE
  5
81
330
57
100
AcDbEntity
  8
Skizziergeometrie_ISO_
  6
Continuous
 62
     7
100
AcDbPolyline
 90
        2
 70
     0
 43
0.5
 10
192.5247341876
 20
18.8651809548799
 10
191.6551889415
 20
19.3668416737836
  0
LWPOLYLINE
  5
82
330
57
100
AcDbEntity
  8
Skizziergeometrie_ISO_
  6
Continuous
 62
     7
100
AcDbPolyline
 90
        2
 70
     0
 43
0.5
 10
191.6551889415
 20
19.3668416737836
 10
191.6551889415
 20
17.8339734259596
  0
LWPOLYLINE
  5
83
330
57
100
AcDbEntity
  8
Skizziergeometrie_ISO_
  6
Continuous
 62
     7
100
AcDbPolyline
 90
        2
 70
     0
 43
0.5
 10
191.6551889415
 20
17.8339734259596
 10
192.691308338763
 20
17.8339734259596
  0
LWPOLYLINE
  5
84
330
57
100
AcDbEntity
  8
Skizziergeometrie_ISO_
  6
Continuous
 62
     7
100
AcDbPolyline
 90
        2
 70
     0
 43
0.5
 10
192.691308338763
 20
17.1673067592928
 10
191.6551889415
 20
17.1673067592928
  0
LWPOLYLINE
  5
85
330
57
100
AcDbEntity
  8
Skizziergeometrie_ISO_
  6
Continuous
 62
     7
100
AcDbPolyline
 90
        2
 70
     0
 43
0.5
 10
191.6551889415
 20
17.1673067592928
 10
191.6551889415
 20
15.6344385114688
  0
LWPOLYLINE
  5
86
330
57
100
AcDbEntity
  8
Skizziergeometrie_ISO_
  6
Continuous
 62
     7
100
AcDbPolyline
 90
        2
 70
     0
 43
0.5
 10
191.6551889415
 20
15.6344385114688
 10
192.5247341876
 20
16.1360992303725
  0
LWPOLYLINE
  5
87
330
57
100
AcDbEntity
  8
Skizziergeometrie_ISO_
  6
Continuous
 62
     7
100
AcDbPolyline
 90
        2
 70
     0
 43
0.5
 10
192.857882489926
 20
15.5586421730067
 10
191.48842975933
 20
14.7685732899702
  0
LWPOLYLINE
  5
88
330
57
100
AcDbEntity
  8
Skizziergeometrie_ISO_
  6
Continuous
 62
     7
100
AcDbPolyline
 90
        2
 70
     0
 43
0.5
 10
190.988522274833
 20
15.0573018186531
 10
190.988522274833
 20
19.9439783665993
  0
LWPOLYLINE
  5
89
330
57
100
AcDbEntity
  8
Skizziergeometrie_ISO_
  6
Continuous
 62
     7
100
AcDbPolyline
 90
        2
 70
     0
 43
0.5
 10
177.330189950303
 20
25.0006400926262
 10
177.330189950303
 20
10.0006400926262
  0
LWPOLYLINE
  5
8A
330
57
100
AcDbEntity
  8
Skizziergeometrie_ISO_
  6
Continuous
 62
     7
100
AcDbPolyline
 90
        2
 70
     0
 43
0.5
 10
159.980189950303
 20
25.0006400926262
 10
159.980189950303
 20
10.0006400926262
  0
LWPOLYLINE
  5
8B
330
57
100
AcDbEntity
  8
Skizziergeometrie_ISO_
  6
Continuous
 62
     7
100
AcDbPolyline
 90
        2
 70
     0
 43
0.5
 10
49.9801899503031
 20
10.0006400926262
 10
49.9801899503031
 20
25.0006400926262
  0
LWPOLYLINE
  5
8C
330
57
100
AcDbEntity
  8
Skizziergeometrie_ISO_
  6
Continuous
 62
     7
100
AcDbPolyline
 90
        2
 70
     0
 43
0.5
 10
44.980189950303
 20
45.0006400926262
 10
44.980189950303
 20
25.0006400926262
  0
LWPOLYLINE
  5
8D
330
57
100
AcDbEntity
  8
Skizziergeometrie_ISO_
  6
Continuous
 62
     7
100
AcDbPolyline
 90
        2
 70
     0
 43
0.5
 10
26.980189950303
 20
45.0006400926262
 10
26.980189950303
 20
25.0006400926262
  0
LWPOLYLINE
  5
8E
330
57
100
AcDbEntity
  8
Skizziergeometrie_ISO_
  6
Continuous
 62
     7
100
AcDbPolyline
 90
        2
 70
     0
 43
0.5
 10
19.980189950303
 20
17.5006400926262
 10
49.9801899503031
 20
17.5006400926262
  0
LWPOLYLINE
  5
8F
330
57
100
AcDbEntity
  8
Skizziergeometrie_ISO_
  6
Continuous
 62
     7
100
AcDbPolyline
 90
        2
 70
     0
 43
0.5
 10
19.980189950303
 20
25.0006400926262
 10
199.980189950303
 20
25.0006400926262
  0
LWPOLYLINE
  5
90
330
57
100
AcDbEntity
  8
Skizziergeometrie_ISO_
  6
Continuous
 62
     7
100
AcDbPolyline
 90
        2
 70
     0
 43
0.5
 10
19.980189950303
 20
30.0006400926262
 10
199.980189950303
 20
30.0006400926262
  0
LWPOLYLINE
  5
91
330
57
100
AcDbEntity
  8
Skizziergeometrie_ISO_
  6
Continuous
 62
     7
100
AcDbPolyline
 90
        2
 70
     0
 43
0.5
 10
19.980189950303
 20
35.0006400926262
 10
199.980189950303
 20
35.0006400926262
  0
LWPOLYLINE
  5
92
330
57
100
AcDbEntity
  8
Skizziergeometrie_ISO_
  6
Continuous
 62
     7
100
AcDbPolyline
 90
        2
 70
     0
 43
0.5
 10
19.980189950303
 20
40.0006400926262
 10
199.980189950303
 20
40.0006400926262
  0
LWPOLYLINE
  5
93
330
57
100
AcDbEntity
  8
Skizziergeometrie_ISO_
  6
Continuous
 62
     7
100
AcDbPolyline
 90
        2
 70
     0
 43
0.5
 10
19.980189950303
 20
45.0006400926262
 10
199.980189950303
 20
45.0006400926262
  0
LINE
  5
94
102
{ACAD_REACTORS
330
D1
102
}
330
57
100
AcDbEntity
  8
0
  6
Continuous
 62
     7
100
AcDbLine
 10
192.857882489926
 20
15.5586421730067
 30
0.0
 11
191.48842975933
 21
14.7685732899702
 31
0.0
  0
LINE
  5
95
102
{ACAD_REACTORS
330
D1
102
}
330
57
100
AcDbEntity
  8
0
  6
Continuous
 62
     7
100
AcDbLine
 10
190.988522274833
 20
15.0573018186531
 30
0.0
 11
190.988522274833
 21
19.9439783665993
 31
0.0
  0
LINE
  5
96
102
{ACAD_REACTORS
330
D1
102
}
330
57
100
AcDbEntity
  8
0
  6
Continuous
 62
     7
100
AcDbLine
 10
191.48842975933
 20
20.2327068952822
 30
0.0
 11
192.857882489926
 21
19.4426380122457
 31
0.0
  0
LINE
  5
97
102
{ACAD_REACTORS
330
D1
102
}
330
57
100
AcDbEntity
  8
0
  6
Continuous
 62
     7
100
AcDbLine
 10
192.5247341876
 20
18.8651809548799
 30
0.0
 11
191.6551889415
 21
19.3668416737836
 31
0.0
  0
LINE
  5
98
102
{ACAD_REACTORS
330
D1
102
}
330
57
100
AcDbEntity
  8
0
  6
Continuous
 62
     7
100
AcDbLine
 10
191.6551889415
 20
19.3668416737836
 30
0.0
 11
191.6551889415
 21
17.8339734259596
 31
0.0
  0
LINE
  5
99
102
{ACAD_REACTORS
330
D1
102
}
330
57
100
AcDbEntity
  8
0
  6
Continuous
 62
     7
100
AcDbLine
 10
191.6551889415
 20
17.8339734259596
 30
0.0
 11
192.691308338763
 21
17.8339734259596
 31
0.0
  0
LINE
  5
9A
102
{ACAD_REACTORS
330
D1
102
}
330
57
100
AcDbEntity
  8
0
  6
Continuous
 62
     7
100
AcDbLine
 10
192.691308338763
 20
17.1673067592928
 30
0.0
 11
191.6551889415
 21
17.1673067592928
 31
0.0
  0
LINE
  5
9B
102
{ACAD_REACTORS
330
D1
102
}
330
57
100
AcDbEntity
  8
0
  6
Continuous
 62
     7
100
AcDbLine
 10
191.6551889415
 20
17.1673067592928
 30
0.0
 11
191.6551889415
 21
15.6344385114688
 31
0.0
  0
LINE
  5
9C
102
{ACAD_REACTORS
330
D1
102
}
330
57
100
AcDbEntity
  8
0
  6
Continuous
 62
     7
100
AcDbLine
 10
191.6551889415
 20
15.6344385114688
 30
0.0
 11
192.5247341876
 21
16.1360992303725
 31
0.0
  0
LINE
  5
9D
102
{ACAD_REACTORS
330
D2
102
}
330
57
100
AcDbEntity
  8
0
  6
Continuous
 62
     7
100
AcDbLine
 10
186.988528696562
 20
20.7526980593071
 30
0.0
 11
186.988528696563
 21
15.8473707016896
 31
0.0
  0
LINE
  5
9E
102
{ACAD_REACTORS
330
D2
102
}
330
57
100
AcDbEntity
  8
0
  6
Continuous
 62
     7
100
AcDbLine
 10
187.655195363229
 20
15.8473707016896
 30
0.0
 11
187.655195363229
 21
19.2535360148728
 31
0.0
  0
LINE
  5
9F
102
{ACAD_REACTORS
330
D2
102
}
330
57
100
AcDbEntity
  8
0
  6
Continuous
 62
     7
100
AcDbLine
 10
187.655195363229
 20
19.2535360148728
 30
0.0
 11
188.510852383006
 21
17.7714945827671
 31
0.0
  0
LINE
  5
A0
102
{ACAD_REACTORS
330
D2
102
}
330
57
100
AcDbEntity
  8
0
  6
Continuous
 62
     7
100
AcDbLine
 10
188.7995275176
 20
17.7714945827671
 30
0.0
 11
189.655184537377
 21
19.2535360148728
 31
0.0
  0
LINE
  5
A1
102
{ACAD_REACTORS
330
D2
102
}
330
57
100
AcDbEntity
  8
0
  6
Continuous
 62
     7
100
AcDbLine
 10
189.655184537377
 20
19.2535360148728
 30
0.0
 11
189.655184537377
 21
14.2880685085818
 31
0.0
  0
LINE
  5
A2
102
{ACAD_REACTORS
330
D2
102
}
330
57
100
AcDbEntity
  8
0
  6
Continuous
 62
     7
100
AcDbLine
 10
190.321851204044
 20
14.2880685085818
 30
0.0
 11
190.321851204044
 21
20.752698059307
 31
0.0
  0
LINE
  5
A3
102
{ACAD_REACTORS
330
D2
102
}
330
57
100
AcDbEntity
  8
0
  6
Continuous
 62
     7
100
AcDbLine
 10
189.82741752042
 20
20.8851811655447
 30
0.0
 11
188.655189950303
 21
18.8548234560689
 31
0.0
  0
LINE
  5
A4
102
{ACAD_REACTORS
330
D2
102
}
330
57
100
AcDbEntity
  8
0
  6
Continuous
 62
     7
100
AcDbLine
 10
188.655189950303
 20
18.8548234560689
 30
0.0
 11
187.482962380186
 21
20.8851811655447
 31
0.0
  0
LINE
  5
A5
102
{ACAD_REACTORS
330
D3
102
}
330
57
100
AcDbEntity
  8
0
  6
Continuous
 62
     7
100
AcDbLine
 10
186.321857625773
 20
15.270660658657
 30
0.0
 11
186.321857625773
 21
19.9439783665993
 31
0.0
  0
LINE
  5
A6
102
{ACAD_REACTORS
330
D3
102
}
330
57
100
AcDbEntity
  8
0
  6
Continuous
 62
     7
100
AcDbLine
 10
185.655190959106
 20
19.9439783665993
 30
0.0
 11
185.655190959106
 21
15.2706619304882
 31
0.0
  0
LINE
  5
A7
102
{ACAD_REACTORS
330
D3
102
}
330
57
100
AcDbEntity
  8
0
  6
Continuous
 62
     7
100
AcDbLine
 10
185.988710425088
 20
14.6932029657285
 30
0.0
 11
188.15634562976
 21
13.4426441938023
 31
0.0
  0
LINE
  5
A8
102
{ACAD_REACTORS
330
D3
102
}
330
57
100
AcDbEntity
  8
0
  6
Continuous
 62
     7
100
AcDbLine
 10
188.489493932086
 20
14.0201012511681
 30
0.0
 11
186.321857625773
 21
15.270660658657
 31
0.0
  0
LINE
  5
A9
102
{ACAD_REACTORS
330
D4
102
}
330
57
100
AcDbEntity
  8
0
  6
Continuous
 62
     7
100
AcDbLine
 10
184.988523283636
 20
19.1539094835628
 30
0.0
 11
184.988523283636
 21
15.8473707016896
 31
0.0
  0
LINE
  5
AA
102
{ACAD_REACTORS
330
D4
102
}
330
57
100
AcDbEntity
  8
0
  6
Continuous
 62
     7
100
AcDbLine
 10
184.32185661697
 20
15.8473707016896
 30
0.0
 11
184.32185661697
 21
19.1539094835628
 31
0.0
  0
LWPOLYLINE
  5
AB
330
57
100
AcDbEntity
  8
Skizziergeometrie_ISO_
  6
Continuous
 62
     7
100
AcDbPolyline
 90
        2
 70
     0
 43
0.5
 10
188.510852383006
 20
17.7714945827671
 42
0.57735026918893
 10
188.7995275176
 20
17.7714945827671
 42
0.57735026918893
  0
LWPOLYLINE
  5
AC
330
57
100
AcDbEntity
  8
Skizziergeometrie_ISO_
  6
Continuous
 62
     7
100
AcDbPolyline
 90
        2
 70
     0
 43
0.5
 10
185.655190959106
 20
15.2706619304882
 42
0.26803505952206
 10
185.988710425088
 20
14.6932029657285
 42
0.26803505952206
  0
LWPOLYLINE
  5
AD
330
57
100
AcDbEntity
  8
Skizziergeometrie_ISO_
  6
Continuous
 62
     7
100
AcDbPolyline
 90
        2
 70
     0
 43
0.5
 10
180.238754675162
 20
17.6450043569675
 42
0.57756392459859
 10
180.238754675162
 20
17.3562758282849
 42
0.57756392459859
  0
LWPOLYLINE
  5
AE
330
57
100
AcDbEntity
  8
Skizziergeometrie_ISO_
  6
Continuous
 62
     7
100
AcDbPolyline
 90
        2
 70
     0
 43
0.5
 10
197.071625225444
 20
17.3562758282849
 42
0.57756392459859
 10
197.071625225444
 20
17.6450043569675
 42
0.57756392459859
  0
LWPOLYLINE
  5
AF
330
57
100
AcDbEntity
  8
Skizziergeometrie_ISO_
  6
Continuous
 62
     7
100
AcDbPolyline
 90
        2
 70
     0
 43
0.5
 10
191.48842975933
 20
20.2327068952822
 42
0.57724345630757
 10
190.988522274833
 20
19.9439783665993
 42
0.57724345630757
  0
LWPOLYLINE
  5
B0
330
57
100
AcDbEntity
  8
Skizziergeometrie_ISO_
  6
Continuous
 62
     7
100
AcDbPolyline
 90
        2
 70
     0
 43
0.5
 10
190.988522274833
 20
15.0573018186531
 42
0.57724345630757
 10
191.48842975933
 20
14.7685732899702
 42
0.57724345630757
  0
LWPOLYLINE
  5
B1
330
57
100
AcDbEntity
  8
Skizziergeometrie_ISO_
  6
Continuous
 62
     7
100
AcDbPolyline
 90
        2
 70
     0
 43
0.5
 10
187.482962380186
 20
20.8851811655447
 42
0.7673269879789
 10
186.988528696562
 20
20.7526980593071
 42
0.7673269879789
  0
LWPOLYLINE
  5
B2
330
57
100
AcDbEntity
  8
Skizziergeometrie_ISO_
  6
Continuous
 62
     7
100
AcDbPolyline
 90
        2
 70
     0
 43
0.5
 10
186.988528696563
 20
15.8473707016896
 42
1.0
 10
187.655195363229
 20
15.8473707016896
 42
1.0
  0
LWPOLYLINE
  5
B3
330
57
100
AcDbEntity
  8
Skizziergeometrie_ISO_
  6
Continuous
 62
     7
100
AcDbPolyline
 90
        2
 70
     0
 43
0.5
 10
189.655184537377
 20
14.2880685085818
 42
1.0
 10
190.321851204044
 20
14.2880685085818
 42
1.0
  0
LWPOLYLINE
  5
B4
330
57
100
AcDbEntity
  8
Skizziergeometrie_ISO_
  6
Continuous
 62
     7
100
AcDbPolyline
 90
        2
 70
     0
 43
0.5
 10
190.321851204044
 20
20.752698059307
 42
0.76732698797879
 10
189.82741752042
 20
20.8851811655447
 42
0.76732698797879
  0
LWPOLYLINE
  5
B5
330
57
100
AcDbEntity
  8
Skizziergeometrie_ISO_
  6
Continuous
 62
     7
100
AcDbPolyline
 90
        2
 70
     0
 43
0.5
 10
186.321857625773
 20
19.9439783665993
 42
1.0
 10
185.655190959106
 20
19.9439783665993
 42
1.0
  0
LWPOLYLINE
  5
B6
330
57
100
AcDbEntity
  8
Skizziergeometrie_ISO_
  6
Continuous
 62
     7
100
AcDbPolyline
 90
        2
 70
     0
 43
0.5
 10
188.15634562976
 20
13.4426441938023
 42
1.0
 10
188.489493932086
 20
14.0201012511681
 42
1.0
  0
LWPOLYLINE
  5
B7
330
57
100
AcDbEntity
  8
Skizziergeometrie_ISO_
  6
Continuous
 62
     7
100
AcDbPolyline
 90
        2
 70
     0
 43
0.5
 10
184.988523283636
 20
19.1539094835628
 42
1.0
 10
184.32185661697
 20
19.1539094835628
 42
1.0
  0
LWPOLYLINE
  5
B8
330
57
100
AcDbEntity
  8
Skizziergeometrie_ISO_
  6
Continuous
 62
     7
100
AcDbPolyline
 90
        2
 70
     0
 43
0.5
 10
184.32185661697
 20
15.8473707016896
 42
1.0
 10
184.988523283636
 20
15.8473707016896
 42
1.0
  0
LWPOLYLINE
  5
B9
330
57
100
AcDbEntity
  8
Skizziergeometrie_ISO_
  6
Continuous
 62
     7
100
AcDbPolyline
 90
        2
 70
     0
 43
0.5
 10
192.5247341876
 20
18.8651809548799
 42
1.00000000000004
 10
192.857882489926
 20
19.4426380122457
 42
1.00000000000004
  0
LWPOLYLINE
  5
BA
330
57
100
AcDbEntity
  8
Skizziergeometrie_ISO_
  6
Continuous
 62
     7
100
AcDbPolyline
 90
        2
 70
     0
 43
0.5
 10
192.691308338763
 20
17.1673067592928
 42
1.0
 10
192.691308338763
 20
17.8339734259596
 42
1.0
  0
LWPOLYLINE
  5
BB
330
57
100
AcDbEntity
  8
Skizziergeometrie_ISO_
  6
Continuous
 62
     7
100
AcDbPolyline
 90
        2
 70
     0
 43
0.5
 10
192.857882489926
 20
15.5586421730067
 42
1.00000000000004
 10
192.5247341876
 20
16.1360992303725
 42
1.00000000000004
  0
ARC
  5
BC
102
{ACAD_REACTORS
330
D1
102
}
330
57
100
AcDbEntity
  8
0
  6
Continuous
 62
     7
100
AcDbCircle
 10
191.321855608167
 20
15.0573018186531
 30
0.0
 40
0.3333333333339965
100
AcDbArc
 50
180.0
 51
299.9816393688164
  0
ARC
  5
BD
102
{ACAD_REACTORS
330
D1
102
}
330
57
100
AcDbEntity
  8
0
  6
Continuous
 62
     7
100
AcDbCircle
 10
191.321855608167
 20
19.9439783665993
 30
0.0
 40
0.3333333333332604
100
AcDbArc
 50
60.01836063118353
 51
180.0
  0
ARC
  5
BE
102
{ACAD_REACTORS
330
D1
102
}
330
57
100
AcDbEntity
  8
0
  6
Continuous
 62
     7
100
AcDbCircle
 10
192.691308338763
 20
19.1539094835628
 30
0.0
 40
0.3333333333332746
100
AcDbArc
 50
240.0183606311793
 51
60.01835942368935
  0
ARC
  5
BF
102
{ACAD_REACTORS
330
D1
102
}
330
57
100
AcDbEntity
  8
0
  6
Continuous
 62
     7
100
AcDbCircle
 10
192.691308338763
 20
17.5006400926262
 30
0.0
 40
0.3333333333333997
100
AcDbArc
 50
270.0
 51
90.0
  0
ARC
  5
C0
102
{ACAD_REACTORS
330
D1
102
}
330
57
100
AcDbEntity
  8
0
  6
Continuous
 62
     7
100
AcDbCircle
 10
192.691308338763
 20
15.8473707016896
 30
0.0
 40
0.3333333333332619
100
AcDbArc
 50
299.9816393688163
 51
119.9816393688206
  0
ARC
  5
C1
102
{ACAD_REACTORS
330
D2
102
}
330
57
100
AcDbEntity
  8
0
  6
Continuous
 62
     7
100
AcDbCircle
 10
187.253494909038
 20
20.7526980593071
 30
0.0
 40
0.2649662124751274
100
AcDbArc
 50
30.00000000000922
 51
180.0
  0
ARC
  5
C2
102
{ACAD_REACTORS
330
D2
102
}
330
57
100
AcDbEntity
  8
0
  6
Continuous
 62
     7
100
AcDbCircle
 10
187.321862029896
 20
15.8473707016896
 30
0.0
 40
0.3333333333330017
100
AcDbArc
 50
180.0
 51
0.0
  0
ARC
  5
C3
102
{ACAD_REACTORS
330
D2
102
}
330
57
100
AcDbEntity
  8
0
  6
Continuous
 62
     7
100
AcDbCircle
 10
188.655189950303
 20
17.8548279161004
 30
0.0
 40
0.1666666666662864
100
AcDbArc
 50
210.0000000000623
 51
329.9999999999426
  0
ARC
  5
C4
102
{ACAD_REACTORS
330
D2
102
}
330
57
100
AcDbEntity
  8
0
  6
Continuous
 62
     7
100
AcDbCircle
 10
189.98851787071
 20
14.2880685085818
 30
0.0
 40
0.3333333333330017
100
AcDbArc
 50
180.0
 51
0.0
  0
ARC
  5
C5
102
{ACAD_REACTORS
330
D2
102
}
330
57
100
AcDbEntity
  8
0
  6
Continuous
 62
     7
100
AcDbCircle
 10
190.056884991568
 20
20.752698059307
 30
0.0
 40
0.2649662124759971
100
AcDbArc
 50
0.0
 51
149.9999999999752
  0
ARC
  5
C6
102
{ACAD_REACTORS
330
D3
102
}
330
57
100
AcDbEntity
  8
0
  6
Continuous
 62
     7
100
AcDbCircle
 10
185.988524292439
 20
19.9439783665993
 30
0.0
 40
0.3333333333339965
100
AcDbArc
 50
0.0
 51
180.0
  0
ARC
  5
C7
102
{ACAD_REACTORS
330
D3
102
}
330
57
100
AcDbEntity
  8
0
  6
Continuous
 62
     7
100
AcDbCircle
 10
186.321859827834
 20
15.2706619304882
 30
0.0
 40
0.66666886872801
100
AcDbArc
 50
180.0
 51
240.0183606311481
  0
ARC
  5
C8
102
{ACAD_REACTORS
330
D3
102
}
330
57
100
AcDbEntity
  8
0
  6
Continuous
 62
     7
100
AcDbCircle
 10
188.322919780923
 20
13.7313727224852
 30
0.0
 40
0.3333333333332604
100
AcDbArc
 50
240.0183606311836
 51
60.01836063118368
  0
ARC
  5
C9
102
{ACAD_REACTORS
330
D4
102
}
330
57
100
AcDbEntity
  8
0
  6
Continuous
 62
     7
100
AcDbCircle
 10
184.655189950303
 20
15.8473707016896
 30
0.0
 40
0.3333333333330017
100
AcDbArc
 50
180.0
 51
0.0
  0
ARC
  5
CA
102
{ACAD_REACTORS
330
D4
102
}
330
57
100
AcDbEntity
  8
0
  6
Continuous
 62
     7
100
AcDbCircle
 10
184.655189950303
 20
19.1539094835628
 30
0.0
 40
0.3333333333330017
100
AcDbArc
 50
0.0
 51
180.0
  0
MTEXT
  5
CC
330
57
100
AcDbEntity
  8
Symbole_ISO_
 62
     7
100
AcDbMText
 10
39.980189950303
 20
21.2506400926262
 30
0.0
 40
3.49999994039535
 41
0.0
 71
     5
 72
     1
  1
04.01.2007
  7
CONVERTER_12
 73
     1
 44
0.75727272727273
  0
MTEXT
  5
CE
330
57
100
AcDbEntity
  8
Symbole_ISO_
 62
     7
100
AcDbMText
 10
168.655189950303
 20
22.5006400926262
 30
0.0
 40
2.5
 41
0.0
 71
     5
 72
     1
  1
Scale
  7
CONVERTER_13
 73
     1
 44
0.75727272727273
  0
MTEXT
  5
CF
330
57
100
AcDbEntity
  8
Symbole_ISO_
 62
     7
100
AcDbMText
 10
20.980189950303
 20
13.7506400926262
 30
0.0
 40
2.5
 41
0.0
 71
     4
 72
     1
  1
Sign.
  7
CONVERTER_13
 73
     1
 44
0.75727272727273
  0
MTEXT
  5
D0
330
57
100
AcDbEntity
  8
Symbole_ISO_
 62
     7
100
AcDbMText
 10
20.980189950303
 20
21.2506400926262
 30
0.0
 40
2.5
 41
0.0
 71
     4
 72
     1
  1
Date
  7
CONVERTER_13
 73
     1
 44
0.75727272727273
  0
HATCH
  5
D1
330
57
100
AcDbEntity
  8
Schraffur
  6
Continuous
 62
     7
100
AcDbHatch
 10
0.0
 20
0.0
 30
0.0
210
0.0
220
0.0
230
1.0
  2
SOLID
 70
     1
 71
     1
 91
        1
 92
        1
 93
       14
 72
     2
 10
192.691308338763
 20
19.1539094835628
 40
0.3333333333332746
 50
299.9816405763107
 51
479.9816393688208
 73
     0
 72
     1
 10
192.5247341876
 20
18.8651809548799
 11
191.6551889415
 21
19.3668416737836
 72
     1
 10
191.6551889415
 20
19.3668416737836
 11
191.6551889415
 21
17.8339734259596
 72
     1
 10
191.6551889415
 20
17.8339734259596
 11
192.691308338763
 21
17.8339734259596
 72
     2
 10
192.691308338763
 20
17.5006400926262
 40
0.3333333333333997
 50
270.0
 51
450.0
 73
     0
 72
     1
 10
192.691308338763
 20
17.1673067592928
 11
191.6551889415
 21
17.1673067592928
 72
     1
 10
191.6551889415
 20
17.1673067592928
 11
191.6551889415
 21
15.6344385114688
 72
     1
 10
191.6551889415
 20
15.6344385114688
 11
192.5247341876
 21
16.1360992303725
 72
     2
 10
192.691308338763
 20
15.8473707016896
 40
0.3333333333332619
 50
240.0183606311795
 51
420.0183606311837
 73
     0
 72
     1
 10
192.857882489926
 20
15.5586421730067
 11
191.48842975933
 21
14.7685732899702
 72
     2
 10
191.321855608167
 20
15.0573018186531
 40
0.3333333333339965
 50
60.01836063118353
 51
180.0
 73
     0
 72
     1
 10
190.988522274833
 20
15.0573018186531
 11
190.988522274833
 21
19.9439783665993
 72
     2
 10
191.321855608167
 20
19.9439783665993
 40
0.3333333333332604
 50
180.0
 51
299.9816393688164
 73
     0
 72
     1
 10
191.48842975933
 20
20.2327068952822
 11
192.857882489926
 21
19.4426380122457
 97
       14
330
94
330
BC
330
95
330
BD
330
96
330
BE
330
97
330
98
330
99
330
BF
330
9A
330
9B
330
9C
330
C0
 75
     0
 76
     1
 98
        1
 10
0.0
 20
0.0
  0
HATCH
  5
D2
330
57
100
AcDbEntity
  8
Schraffur
  6
Continuous
 62
     7
100
AcDbHatch
 10
0.0
 20
0.0
 30
0.0
210
0.0
220
0.0
230
1.0
  2
SOLID
 70
     1
 71
     1
 91
        1
 92
        1
 93
       13
 72
     2
 10
187.253494909038
 20
20.7526980593071
 40
0.2649662124751274
 50
30.00000000000922
 51
180.0
 73
     1
 72
     1
 10
186.988528696562
 20
20.7526980593071
 11
186.988528696563
 21
15.8473707016896
 72
     2
 10
187.321862029896
 20
15.8473707016896
 40
0.3333333333330017
 50
180.0
 51
360.0
 73
     1
 72
     1
 10
187.655195363229
 20
15.8473707016896
 11
187.655195363229
 21
19.2535360148728
 72
     1
 10
187.655195363229
 20
19.2535360148728
 11
188.510852383006
 21
17.7714945827671
 72
     2
 10
188.655189950303
 20
17.8548279161004
 40
0.1666666666662864
 50
210.0000000000623
 51
329.9999999999426
 73
     1
 72
     1
 10
188.7995275176
 20
17.7714945827671
 11
189.655184537377
 21
19.2535360148728
 72
     1
 10
189.655184537377
 20
19.2535360148728
 11
189.655184537377
 21
14.2880685085818
 72
     2
 10
189.98851787071
 20
14.2880685085818
 40
0.3333333333330017
 50
180.0
 51
360.0
 73
     1
 72
     1
 10
190.321851204044
 20
14.2880685085818
 11
190.321851204044
 21
20.752698059307
 72
     2
 10
190.056884991568
 20
20.752698059307
 40
0.2649662124759971
 50
0.0
 51
149.9999999999752
 73
     1
 72
     1
 10
189.82741752042
 20
20.8851811655447
 11
188.655189950303
 21
18.8548234560689
 72
     1
 10
188.655189950303
 20
18.8548234560689
 11
187.482962380186
 21
20.8851811655447
 97
       13
330
A3
330
C5
330
A2
330
C4
330
A1
330
A0
330
C3
330
9F
330
9E
330
C2
330
9D
330
C1
330
A4
 75
     0
 76
     1
 98
        1
 10
0.0
 20
0.0
  0
HATCH
  5
D3
330
57
100
AcDbEntity
  8
Schraffur
  6
Continuous
 62
     7
100
AcDbHatch
 10
0.0
 20
0.0
 30
0.0
210
0.0
220
0.0
230
1.0
  2
SOLID
 70
     1
 71
     1
 91
        1
 92
        1
 93
        7
 72
     1
 10
186.321857625773
 20
15.270660658657
 11
186.321857625773
 21
19.9439783665993
 72
     2
 10
185.988524292439
 20
19.9439783665993
 40
0.3333333333339965
 50
0.0
 51
180.0
 73
     1
 72
     1
 10
185.655190959106
 20
19.9439783665993
 11
185.655190959106
 21
15.2706619304882
 72
     2
 10
186.321859827834
 20
15.2706619304882
 40
0.66666886872801
 50
180.0
 51
240.0183606311481
 73
     1
 72
     1
 10
185.988710425088
 20
14.6932029657285
 11
188.15634562976
 21
13.4426441938023
 72
     2
 10
188.322919780923
 20
13.7313727224852
 40
0.3333333333332604
 50
240.0183606311836
 51
420.0183606311837
 73
     1
 72
     1
 10
188.489493932086
 20
14.0201012511681
 11
186.321857625773
 21
15.270660658657
 97
        7
330
C8
330
A7
330
C7
330
A6
330
C6
330
A5
330
A8
 75
     0
 76
     1
 98
        1
 10
0.0
 20
0.0
  0
HATCH
  5
D4
330
57
100
AcDbEntity
  8
Schraffur
  6
Continuous
 62
     7
100
AcDbHatch
 10
0.0
 20
0.0
 30
0.0
210
0.0
220
0.0
230
1.0
  2
SOLID
 70
     1
 71
     1
 91
        1
 92
        1
 93
        4
 72
     1
 10
184.988523283636
 20
19.1539094835628
 11
184.988523283636
 21
15.8473707016896
 72
     2
 10
184.655189950303
 20
15.8473707016896
 40
0.3333333333330017
 50
0.0
 51
180.0
 73
     0
 72
     1
 10
184.32185661697
 20
15.8473707016896
 11
184.32185661697
 21
19.1539094835628
 72
     2
 10
184.655189950303
 20
19.1539094835628
 40
0.3333333333330017
 50
180.0
 51
360.0
 73
     0
 97
        4
330
A9
330
C9
330
AA
330
CA
 75
     0
 76
     1
 98
        1
 10
0.0
 20
0.0
  0
ENDBLK
  5
59
330
57
100
AcDbEntity
  8
0
100
AcDbBlockEnd
  0
BLOCK
  5
5B
330
5A
100
AcDbEntity
  8
0
100
AcDbBlockBegin
  2
Ränder_Ilme_Rahmen_A4_quer
 70
     0
 10
0.0
 20
0.0
 30
0.0
  3
Ränder_Ilme_Rahmen_A4_quer
  1

  0
LWPOLYLINE
  5
D5
330
5A
100
AcDbEntity
  8
Skizziergeometrie_ISO_
  6
Continuous
 62
     7
100
AcDbPolyline
 90
        2
 70
     0
 43
0.5
 10
287.0
 20
190.0
 10
287.0
 20
10.0
  0
LWPOLYLINE
  5
D6
330
5A
100
AcDbEntity
  8
Skizziergeometrie_ISO_
  6
Continuous
 62
     7
100
AcDbPolyline
 90
        2
 70
     0
 43
0.5
 10
148.5
 20
210.0
 10
148.5
 20
196.0
  0
LWPOLYLINE
  5
D7
330
5A
100
AcDbEntity
  8
Skizziergeometrie_ISO_
  6
Continuous
 62
     7
100
AcDbPolyline
 90
        2
 70
     0
 43
0.5
 10
9.99999999999998
 20
9.99999999999995
 10
287.0
 20
10.0
  0
LWPOLYLINE
  5
D8
330
5A
100
AcDbEntity
  8
Skizziergeometrie_ISO_
  6
Continuous
 62
     7
100
AcDbPolyline
 90
        2
 70
     0
 43
0.5
 10
10.0
 20
190.0
 10
287.0
 20
190.0
  0
LWPOLYLINE
  5
D9
330
5A
100
AcDbEntity
  8
Skizziergeometrie_ISO_
  6
Continuous
 62
     7
100
AcDbPolyline
 90
        2
 70
     0
 43
0.5
 10
9.99999999999998
 20
9.99999999999995
 10
10.0
 20
190.0
  0
MTEXT
  5
DA
330
5A
100
AcDbEntity
  8
Symbole_ISO_
 62
     7
100
AcDbMText
 10
148.5
 20
196.0
 30
0.0
 40
3.5
 41
0.0
 71
     2
 72
     1
  1
Diritti riservati     All rights reserved
  7
CONVERTER_13
 73
     1
 44
0.75727272727273
  0
ENDBLK
  5
5C
330
5A
100
AcDbEntity
  8
0
100
AcDbBlockEnd
  0
BLOCK
  5
230
330
229
100
AcDbEntity
  8
0
100
AcDbBlockBegin
  2
*D4
 70
     1
 10
0.0
 20
0.0
 30
0.0
  3
*D4
  1

  0
LINE
  5
22A
330
229
100
AcDbEntity
  8
Bemaßungen_TC_020513_DIN0
  6
Continuous
 62
     7
100
AcDbLine
 10
562.4424042320201
 20
630.8897797436459
 30
0.0
 11
562.4424042320201
 21
659.8897797436459
 31
0.0
  0
LINE
  5
22B
330
229
100
AcDbEntity
  8
Bemaßungen_TC_020513_DIN0
  6
Continuous
 62
     7
100
AcDbLine
 10
506.6924042320233
 20
659.8897797436459
 30
0.0
 11
566.4424042320201
 21
659.8897797436459
 31
0.0
  0
LINE
  5
22C
330
229
100
AcDbEntity
  8
Bemaßungen_TC_020513_DIN0
  6
Continuous
 62
     7
100
AcDbLine
 10
508.4424042320203
 20
630.8897797436459
 30
0.0
 11
566.4424042320201
 21
630.8897797436459
 31
0.0
  0
SOLID
  5
22D
330
229
100
AcDbEntity
  8
Bemaßungen_TC_020513_DIN0
 62
     7
100
AcDbTrace
 10
563.1006667199571
 20
654.8897797436459
 30
0.0
 11
561.7841417440831
 21
654.8897797436459
 31
0.0
 12
562.4424042320201
 22
659.8897797436459
 32
0.0
 13
562.4424042320201
 23
659.8897797436459
 33
0.0
  0
SOLID
  5
22E
330
229
100
AcDbEntity
  8
Bemaßungen_TC_020513_DIN0
 62
     7
100
AcDbTrace
 10
561.7841417440831
 20
635.8897797436459
 30
0.0
 11
563.1006667199571
 21
635.8897797436459
 31
0.0
 12
562.4424042320201
 22
630.8897797436459
 32
0.0
 13
562.4424042320201
 23
630.8897797436459
 33
0.0
  0
MTEXT
  5
22F
330
229
100
AcDbEntity
  8
Bemaßungen_TC_020513_DIN0
 62
     7
100
AcDbMText
 10
557.1247306626227
 20
644.2263719446463
 30
0.0
 40
7.0
 41
0.0
 71
     7
 72
     1
  1
29
  7
CONVERTER_14
 11
0.0
 21
1.0
 31
0.0
 73
     1
 44
0.45454545454545
  0
ENDBLK
  5
231
330
229
100
AcDbEntity
  8
0
100
AcDbBlockEnd
  0
BLOCK
  5
23B
330
234
100
AcDbEntity
  8
0
100
AcDbBlockBegin
  2
*D5
 70
     1
 10
0.0
 20
0.0
 30
0.0
  3
*D5
  1

  0
LINE
  5
235
330
234
100
AcDbEntity
  8
Bemaßungen_TC_020513_DIN0
  6
Continuous
 62
     7
100
AcDbLine
 10
538.442404232021
 20
646.8897797436459
 30
0.0
 11
538.442404232021
 21
615.7439287886659
 31
0.0
  0
LINE
  5
236
330
234
100
AcDbEntity
  8
Bemaßungen_TC_020513_DIN0
  6
Continuous
 62
     7
100
AcDbLine
 10
508.4424042320203
 20
630.8897797436459
 30
0.0
 11
542.442404232021
 21
630.8897797436459
 31
0.0
  0
LINE
  5
237
330
234
100
AcDbEntity
  8
Bemaßungen_TC_020513_DIN0
  6
Continuous
 62
     7
100
AcDbLine
 10
508.4424042320203
 20
636.8897797436459
 30
0.0
 11
542.442404232021
 21
636.8897797436459
 31
0.0
  0
SOLID
  5
238
330
234
100
AcDbEntity
  8
Bemaßungen_TC_020513_DIN0
 62
     7
100
AcDbTrace
 10
539.100666719958
 20
625.8897797436459
 30
0.0
 11
537.784141744084
 21
625.8897797436459
 31
0.0
 12
538.442404232021
 22
630.8897797436459
 32
0.0
 13
538.442404232021
 23
630.8897797436459
 33
0.0
  0
SOLID
  5
239
330
234
100
AcDbEntity
  8
Bemaßungen_TC_020513_DIN0
 62
     7
100
AcDbTrace
 10
537.784141744084
 20
641.8897797436459
 30
0.0
 11
539.100666719958
 21
641.8897797436459
 31
0.0
 12
538.442404232021
 22
636.8897797436459
 32
0.0
 13
538.442404232021
 23
636.8897797436459
 33
0.0
  0
MTEXT
  5
23A
330
234
100
AcDbEntity
  8
Bemaßungen_TC_020513_DIN0
 62
     7
100
AcDbMText
 10
533.1247306626237
 20
616.662678788666
 30
0.0
 40
7.0
 41
0.0
 71
     7
 72
     1
  1
6
  7
CONVERTER_14
 11
0.0
 21
1.0
 31
0.0
 73
     1
 44
0.45454545454545
  0
ENDBLK
  5
23C
330
234
100
AcDbEntity
  8
0
100
AcDbBlockEnd
  0
BLOCK
  5
246
330
23F
100
AcDbEntity
  8
0
100
AcDbBlockBegin
  2
*D6
 70
     1
 10
0.0
 20
0.0
 30
0.0
  3
*D6
  1

  0
LINE
  5
240
330
23F
100
AcDbEntity
  8
Bemaßungen_TC_020513_DIN0
  6
Continuous
 62
     7
100
AcDbLine
 10
511.4424042320218
 20
598.8898006148622
 30
0.0
 11
465.9424042320218
 21
598.8898006148622
 31
0.0
  0
LINE
  5
241
330
23F
100
AcDbEntity
  8
Bemaßungen_TC_020513_DIN0
  6
Continuous
 62
     7
100
AcDbLine
 10
465.9424042320218
 20
628.8897797436464
 30
0.0
 11
465.9424042320218
 21
594.8898006148622
 31
0.0
  0
LINE
  5
242
330
23F
100
AcDbEntity
  8
Bemaßungen_TC_020513_DIN0
  6
Continuous
 62
     7
100
AcDbLine
 10
511.4424042320218
 20
628.8897797436464
 30
0.0
 11
511.4424042320218
 21
594.8898006148622
 31
0.0
  0
SOLID
  5
243
330
23F
100
AcDbEntity
  8
Bemaßungen_TC_020513_DIN0
 62
     7
100
AcDbTrace
 10
470.9424042320218
 20
599.5480631027992
 30
0.0
 11
470.9424042320218
 21
598.2315381269252
 31
0.0
 12
465.9424042320218
 22
598.8898006148622
 32
0.0
 13
465.9424042320218
 23
598.8898006148622
 33
0.0
  0
SOLID
  5
244
330
23F
100
AcDbEntity
  8
Bemaßungen_TC_020513_DIN0
 62
     7
100
AcDbTrace
 10
506.4424042320218
 20
598.2315381269252
 30
0.0
 11
506.4424042320218
 21
599.5480631027992
 31
0.0
 12
511.4424042320218
 22
598.8898006148622
 32
0.0
 13
511.4424042320218
 23
598.8898006148622
 33
0.0
  0
MTEXT
  5
245
330
23F
100
AcDbEntity
  8
Bemaßungen_TC_020513_DIN0
 62
     7
100
AcDbMText
 10
487.6545080319291
 20
606.4889200308226
 30
0.0
 40
7.0
 41
0.0
 71
     7
 72
     1
  1
45,5
  7
CONVERTER_14
 11
0.9999999999882478
 21
4.848136811095759E-6
 31
0.0
 73
     1
 44
0.45454545454545
  0
ENDBLK
  5
247
330
23F
100
AcDbEntity
  8
0
100
AcDbBlockEnd
  0
BLOCK
  5
251
330
24A
100
AcDbEntity
  8
0
100
AcDbBlockBegin
  2
*D7
 70
     1
 10
0.0
 20
0.0
 30
0.0
  3
*D7
  1

  0
LINE
  5
24B
330
24A
100
AcDbEntity
  8
Bemaßungen_TC_020513_DIN0
  6
Continuous
 62
     7
100
AcDbLine
 10
256.1621647734657
 20
598.8898058326694
 30
0.0
 11
398.6621647734657
 21
598.8898058326694
 31
0.0
  0
LINE
  5
24C
330
24A
100
AcDbEntity
  8
Bemaßungen_TC_020513_DIN0
  6
Continuous
 62
     7
100
AcDbLine
 10
398.6621647734657
 20
628.8897797436459
 30
0.0
 11
398.6621647734657
 21
594.8898058326694
 31
0.0
  0
LINE
  5
24D
330
24A
100
AcDbEntity
  8
Bemaßungen_TC_020513_DIN0
  6
Continuous
 62
     7
100
AcDbLine
 10
256.1621647734657
 20
628.8897797436459
 30
0.0
 11
256.1621647734657
 21
594.8898058326694
 31
0.0
  0
SOLID
  5
24E
330
24A
100
AcDbEntity
  8
Bemaßungen_TC_020513_DIN0
 62
     7
100
AcDbTrace
 10
393.6621647734657
 20
598.2315433447324
 30
0.0
 11
393.6621647734657
 21
599.5480683206064
 31
0.0
 12
398.6621647734657
 22
598.8898058326694
 32
0.0
 13
398.6621647734657
 23
598.8898058326694
 33
0.0
  0
SOLID
  5
24F
330
24A
100
AcDbEntity
  8
Bemaßungen_TC_020513_DIN0
 62
     7
100
AcDbTrace
 10
261.1621647734657
 20
599.5480683206064
 30
0.0
 11
261.1621647734657
 21
598.2315433447324
 31
0.0
 12
256.1621647734657
 22
598.8898058326694
 32
0.0
 13
256.1621647734657
 23
598.8898058326694
 33
0.0
  0
MTEXT
  5
250
330
24A
100
AcDbEntity
  8
Bemaßungen_TC_020513_DIN0
 62
     7
100
AcDbMText
 10
326.0473751412794
 20
606.5175671190923
 30
0.0
 40
7.0
 41
0.0
 71
     7
 72
     1
  1
142,5
  7
CONVERTER_14
 11
0.9999999999882478
 21
4.848136811095759E-6
 31
0.0
 73
     1
 44
0.45454545454545
  0
ENDBLK
  5
252
330
24A
100
AcDbEntity
  8
0
100
AcDbBlockEnd
  0
BLOCK
  5
25C
330
255
100
AcDbEntity
  8
0
100
AcDbBlockBegin
  2
*D8
 70
     1
 10
0.0
 20
0.0
 30
0.0
  3
*D8
  1

  0
LINE
  5
256
330
255
100
AcDbEntity
  8
Bemaßungen_TC_020513_DIN_
  6
Continuous
 62
     7
100
AcDbLine
 10
107.7761165406182
 20
554.7836066203662
 30
0.0
 11
142.7761165406186
 21
554.7836066203662
 31
0.0
  0
LINE
  5
257
330
255
100
AcDbEntity
  8
Bemaßungen_TC_020513_DIN_
  6
Continuous
 62
     7
100
AcDbLine
 10
107.7761165406182
 20
596.1219150780777
 30
0.0
 11
107.7761165406182
 21
550.7836066203662
 31
0.0
  0
LINE
  5
258
330
255
100
AcDbEntity
  8
Bemaßungen_TC_020513_DIN_
  6
Continuous
 62
     7
100
AcDbLine
 10
142.7761165406186
 20
596.1219150780777
 30
0.0
 11
142.7761165406186
 21
550.7836066203662
 31
0.0
  0
SOLID
  5
259
330
255
100
AcDbEntity
  8
Bemaßungen_TC_020513_DIN_
 62
     7
100
AcDbTrace
 10
112.7761165406182
 20
555.4418691083032
 30
0.0
 11
112.7761165406182
 21
554.1253441324292
 31
0.0
 12
107.7761165406182
 22
554.7836066203662
 32
0.0
 13
107.7761165406182
 23
554.7836066203662
 33
0.0
  0
SOLID
  5
25A
330
255
100
AcDbEntity
  8
Bemaßungen_TC_020513_DIN_
 62
     7
100
AcDbTrace
 10
137.7761165406186
 20
554.1253441324292
 30
0.0
 11
137.7761165406186
 21
555.4418691083032
 31
0.0
 12
142.7761165406186
 22
554.7836066203662
 32
0.0
 13
142.7761165406186
 23
554.7836066203662
 33
0.0
  0
MTEXT
  5
25B
330
255
100
AcDbEntity
  8
Bemaßungen_TC_020513_DIN_
 62
     7
100
AcDbMText
 10
122.7779244877197
 20
560.1060550874441
 30
0.0
 40
7.0
 41
0.0
 71
     7
 72
     1
  1
35
  7
CONVERTER_11
 11
0.9999999999970619
 21
2.424068405545306E-6
 31
0.0
 73
     1
 44
0.45454545454545
  0
ENDBLK
  5
25D
330
255
100
AcDbEntity
  8
0
100
AcDbBlockEnd
  0
BLOCK
  5
267
330
260
100
AcDbEntity
  8
0
100
AcDbBlockBegin
  2
*D9
 70
     1
 10
0.0
 20
0.0
 30
0.0
  3
*D9
  1

  0
LINE
  5
261
330
260
100
AcDbEntity
  8
Bemaßungen_TC_020513_DIN_
  6
Continuous
 62
     7
100
AcDbLine
 10
86.11442499832964
 20
710.121915078077
 30
0.0
 11
86.11442499832964
 21
598.1219150780771
 31
0.0
  0
LINE
  5
262
330
260
100
AcDbEntity
  8
Bemaßungen_TC_020513_DIN_
  6
Continuous
 62
     7
100
AcDbLine
 10
105.7761165406178
 20
710.121915078077
 30
0.0
 11
82.11442499832964
 21
710.121915078077
 31
0.0
  0
LINE
  5
263
330
260
100
AcDbEntity
  8
Bemaßungen_TC_020513_DIN_
  6
Continuous
 62
     7
100
AcDbLine
 10
105.7761165406178
 20
598.1219150780771
 30
0.0
 11
82.11442499832964
 21
598.1219150780771
 31
0.0
  0
SOLID
  5
264
330
260
100
AcDbEntity
  8
Bemaßungen_TC_020513_DIN_
 62
     7
100
AcDbTrace
 10
86.77268748626662
 20
705.121915078077
 30
0.0
 11
85.45616251039266
 21
705.121915078077
 31
0.0
 12
86.11442499832964
 22
710.121915078077
 32
0.0
 13
86.11442499832964
 23
710.121915078077
 33
0.0
  0
SOLID
  5
265
330
260
100
AcDbEntity
  8
Bemaßungen_TC_020513_DIN_
 62
     7
100
AcDbTrace
 10
85.45616251039266
 20
603.1219150780771
 30
0.0
 11
86.77268748626662
 21
603.1219150780771
 31
0.0
 12
86.11442499832964
 22
598.1219150780771
 32
0.0
 13
86.11442499832964
 23
598.1219150780771
 33
0.0
  0
MTEXT
  5
266
330
260
100
AcDbEntity
  8
Bemaßungen_TC_020513_DIN_
 62
     7
100
AcDbMText
 10
80.86640317022594
 20
651.6067352760689
 30
0.0
 40
7.0
 41
0.0
 71
     7
 72
     1
  1
112
  7
CONVERTER_11
 11
0.0
 21
1.0
 31
0.0
 73
     1
 44
0.45454545454545
  0
ENDBLK
  5
268
330
260
100
AcDbEntity
  8
0
100
AcDbBlockEnd
  0
BLOCK
  5
272
330
26B
100
AcDbEntity
  8
0
100
AcDbBlockBegin
  2
*D10
 70
     1
 10
0.0
 20
0.0
 30
0.0
  3
*D10
  1

  0
LINE
  5
26C
330
26B
100
AcDbEntity
  8
Bemaßungen_TC_020513_DIN_
  6
Continuous
 62
     7
100
AcDbLine
 10
141.2761165406179
 20
739.1219150780776
 30
0.0
 11
109.2761165406179
 21
739.1219150780776
 31
0.0
  0
LINE
  5
26D
330
26B
100
AcDbEntity
  8
Bemaßungen_TC_020513_DIN_
  6
Continuous
 62
     7
100
AcDbLine
 10
109.2761165406179
 20
721.1219150780774
 30
0.0
 11
109.2761165406179
 21
743.1219150780776
 31
0.0
  0
LINE
  5
26E
330
26B
100
AcDbEntity
  8
Bemaßungen_TC_020513_DIN_
  6
Continuous
 62
     7
100
AcDbLine
 10
141.2761165406179
 20
721.1219150780774
 30
0.0
 11
141.2761165406179
 21
743.1219150780776
 31
0.0
  0
SOLID
  5
26F
330
26B
100
AcDbEntity
  8
Bemaßungen_TC_020513_DIN_
 62
     7
100
AcDbTrace
 10
114.2761165406179
 20
739.7801775660146
 30
0.0
 11
114.2761165406179
 21
738.4636525901406
 31
0.0
 12
109.2761165406179
 22
739.1219150780776
 32
0.0
 13
109.2761165406179
 23
739.1219150780776
 33
0.0
  0
SOLID
  5
270
330
26B
100
AcDbEntity
  8
Bemaßungen_TC_020513_DIN_
 62
     7
100
AcDbTrace
 10
136.2761165406179
 20
738.4636525901406
 30
0.0
 11
136.2761165406179
 21
739.7801775660146
 31
0.0
 12
141.2761165406179
 22
739.1219150780776
 32
0.0
 13
141.2761165406179
 23
739.1219150780776
 33
0.0
  0
MTEXT
  5
271
330
26B
100
AcDbEntity
  8
Bemaßungen_TC_020513_DIN_
 62
     7
100
AcDbMText
 10
123.1590064905951
 20
745.1060550874441
 30
0.0
 40
7.0
 41
0.0
 71
     7
 72
     1
  1
32
  7
CONVERTER_11
 11
0.9999999999970619
 21
2.424068405545306E-6
 31
0.0
 73
     1
 44
0.45454545454545
  0
ENDBLK
  5
273
330
26B
100
AcDbEntity
  8
0
100
AcDbBlockEnd
  0
BLOCK
  5
27D
330
276
100
AcDbEntity
  8
0
100
AcDbBlockBegin
  2
*D11
 70
     1
 10
0.0
 20
0.0
 30
0.0
  3
*D11
  1

  0
LINE
  5
277
330
276
100
AcDbEntity
  8
Bemaßungen_TC_020513_DIN_
  6
Continuous
 62
     7
100
AcDbLine
 10
173.2761165406183
 20
589.1219150780776
 30
0.0
 11
173.2761165406183
 21
719.1219150780776
 31
0.0
  0
LINE
  5
278
330
276
100
AcDbEntity
  8
Bemaßungen_TC_020513_DIN_
  6
Continuous
 62
     7
100
AcDbLine
 10
143.2761165406183
 20
719.1219150780776
 30
0.0
 11
177.2761165406183
 21
719.1219150780776
 31
0.0
  0
LINE
  5
279
330
276
100
AcDbEntity
  8
Bemaßungen_TC_020513_DIN_
  6
Continuous
 62
     7
100
AcDbLine
 10
143.2761165406183
 20
589.1219150780776
 30
0.0
 11
177.2761165406183
 21
589.1219150780776
 31
0.0
  0
SOLID
  5
27A
330
276
100
AcDbEntity
  8
Bemaßungen_TC_020513_DIN_
 62
     7
100
AcDbTrace
 10
173.9343790285553
 20
714.1219150780776
 30
0.0
 11
172.6178540526813
 21
714.1219150780776
 31
0.0
 12
173.2761165406183
 22
719.1219150780776
 32
0.0
 13
173.2761165406183
 23
719.1219150780776
 33
0.0
  0
SOLID
  5
27B
330
276
100
AcDbEntity
  8
Bemaßungen_TC_020513_DIN_
 62
     7
100
AcDbTrace
 10
172.6178540526813
 20
594.1219150780776
 30
0.0
 11
173.9343790285553
 21
594.1219150780776
 31
0.0
 12
173.2761165406183
 22
589.1219150780776
 32
0.0
 13
173.2761165406183
 23
589.1219150780776
 33
0.0
  0
MTEXT
  5
27C
330
276
100
AcDbEntity
  8
Bemaßungen_TC_020513_DIN_
 62
     7
100
AcDbMText
 10
167.2919765312517
 20
650.9070401349217
 30
0.0
 40
7.0
 41
0.0
 71
     7
 72
     1
  1
130
  7
CONVERTER_11
 11
0.0
 21
1.0
 31
0.0
 73
     1
 44
0.45454545454545
  0
ENDBLK
  5
27E
330
276
100
AcDbEntity
  8
0
100
AcDbBlockEnd
  0
ENDSEC
  0
SECTION
  2
ENTITIES
  0
INSERT
  5
5D
330
1F
100
AcDbEntity
  8
Bemaßungen_TC_020513_DIN_
100
AcDbBlockReference
  2
_D19
 10
17.5160934360978
 20
419.660110298313
 30
0.0
  0
INSERT
  5
5E
330
1F
100
AcDbEntity
  8
0
100
AcDbBlockReference
  2
Schriftfelder_Ilme
 10
191.5557135354918
 20
419.6588301130605
 30
0.0
 41
2.0
 42
2.0
 43
2.0
  0
INSERT
  5
5F
330
1F
100
AcDbEntity
  8
0
100
AcDbBlockReference
  2
Ränder_Ilme_Rahmen_A4_quer
 10
17.5160934360978
 20
419.660110298313
 30
0.0
 41
2.0
 42
2.0
 43
2.0
  0
POINT
  5
DB
330
1F
100
AcDbEntity
  8
Bemaßungen_TC_020513_DIN0
 62
     7
100
AcDbPoint
 10
506.4424042320208
 20
630.8897797436459
 30
0.0
  0
POINT
  5
DC
330
1F
100
AcDbEntity
  8
Bemaßungen_TC_020513_DIN0
 62
     7
100
AcDbPoint
 10
504.6924042320238
 20
659.8897797436459
 30
0.0
  0
POINT
  5
DD
330
1F
100
AcDbEntity
  8
Bemaßungen_TC_020513_DIN0
 62
     7
100
AcDbPoint
 10
506.4424042320208
 20
636.8897797436459
 30
0.0
  0
POINT
  5
DE
330
1F
100
AcDbEntity
  8
Bemaßungen_TC_020513_DIN0
 62
     7
100
AcDbPoint
 10
506.4424042320208
 20
630.8897797436459
 30
0.0
  0
POINT
  5
DF
330
1F
100
AcDbEntity
  8
Bemaßungen_TC_020513_DIN0
 62
     7
100
AcDbPoint
 10
511.4424042320218
 20
630.8897797436459
 30
0.0
  0
POINT
  5
E0
330
1F
100
AcDbEntity
  8
Bemaßungen_TC_020513_DIN0
 62
     7
100
AcDbPoint
 10
465.9424042320218
 20
630.8897797436459
 30
0.0
  0
POINT
  5
E1
330
1F
100
AcDbEntity
  8
Bemaßungen_TC_020513_DIN0
 62
     7
100
AcDbPoint
 10
256.1621647734658
 20
630.8897797436459
 30
0.0
  0
POINT
  5
E2
330
1F
100
AcDbEntity
  8
Bemaßungen_TC_020513_DIN0
 62
     7
100
AcDbPoint
 10
398.6621647734658
 20
630.8897797436459
 30
0.0
  0
POINT
  5
E3
330
1F
100
AcDbEntity
  8
Bemaßungen_TC_020513_DIN0
 62
     7
100
AcDbPoint
 10
506.4424042320208
 20
630.8897797436459
 30
0.0
  0
POINT
  5
E4
330
1F
100
AcDbEntity
  8
Bemaßungen_TC_020513_DIN0
 62
     7
100
AcDbPoint
 10
504.6924042320238
 20
659.8897797436459
 30
0.0
  0
POINT
  5
E5
330
1F
100
AcDbEntity
  8
Bemaßungen_TC_020513_DIN0
 62
     7
100
AcDbPoint
 10
506.4424042320208
 20
636.8897797436459
 30
0.0
  0
POINT
  5
E6
330
1F
100
AcDbEntity
  8
Bemaßungen_TC_020513_DIN0
 62
     7
100
AcDbPoint
 10
506.4424042320208
 20
630.8897797436459
 30
0.0
  0
POINT
  5
E7
330
1F
100
AcDbEntity
  8
Bemaßungen_TC_020513_DIN0
 62
     7
100
AcDbPoint
 10
511.4424042320218
 20
630.8897797436459
 30
0.0
  0
POINT
  5
E8
330
1F
100
AcDbEntity
  8
Bemaßungen_TC_020513_DIN0
 62
     7
100
AcDbPoint
 10
465.9424042320218
 20
630.8897797436459
 30
0.0
  0
POINT
  5
E9
330
1F
100
AcDbEntity
  8
Bemaßungen_TC_020513_DIN0
 62
     7
100
AcDbPoint
 10
256.1621647734658
 20
630.8897797436459
 30
0.0
  0
POINT
  5
EA
330
1F
100
AcDbEntity
  8
Bemaßungen_TC_020513_DIN0
 62
     7
100
AcDbPoint
 10
398.6621647734658
 20
630.8897797436459
 30
0.0
  0
POINT
  5
EB
330
1F
100
AcDbEntity
  8
Bemaßungen_TC_020513_DIN0
 62
     7
100
AcDbPoint
 10
504.6924042320238
 20
659.8897797436459
 30
0.0
  0
POINT
  5
EC
330
1F
100
AcDbEntity
  8
Bemaßungen_TC_020513_DIN0
 62
     7
100
AcDbPoint
 10
506.4424042320208
 20
630.8897797436459
 30
0.0
  0
POINT
  5
ED
330
1F
100
AcDbEntity
  8
Bemaßungen_TC_020513_DIN0
 62
     7
100
AcDbPoint
 10
506.4424042320208
 20
630.8897797436459
 30
0.0
  0
POINT
  5
EE
330
1F
100
AcDbEntity
  8
Bemaßungen_TC_020513_DIN0
 62
     7
100
AcDbPoint
 10
506.4424042320208
 20
636.8897797436459
 30
0.0
  0
POINT
  5
EF
330
1F
100
AcDbEntity
  8
Bemaßungen_TC_020513_DIN0
 62
     7
100
AcDbPoint
 10
465.9424042320218
 20
630.8897797436459
 30
0.0
  0
POINT
  5
F0
330
1F
100
AcDbEntity
  8
Bemaßungen_TC_020513_DIN0
 62
     7
100
AcDbPoint
 10
511.4424042320218
 20
630.8897797436459
 30
0.0
  0
POINT
  5
F1
330
1F
100
AcDbEntity
  8
Bemaßungen_TC_020513_DIN0
 62
     7
100
AcDbPoint
 10
398.6621647734658
 20
630.8897797436459
 30
0.0
  0
POINT
  5
F2
330
1F
100
AcDbEntity
  8
Bemaßungen_TC_020513_DIN0
 62
     7
100
AcDbPoint
 10
256.1621647734658
 20
630.8897797436459
 30
0.0
  0
POINT
  5
F3
330
1F
100
AcDbEntity
  8
Bemaßungen_TC_020513_DIN_
 62
     7
100
AcDbPoint
 10
107.7761165406178
 20
598.121915078077
 30
0.0
  0
POINT
  5
F4
330
1F
100
AcDbEntity
  8
Bemaßungen_TC_020513_DIN_
 62
     7
100
AcDbPoint
 10
142.7761165406178
 20
598.121915078077
 30
0.0
  0
POINT
  5
F5
330
1F
100
AcDbEntity
  8
Bemaßungen_TC_020513_DIN_
 62
     7
100
AcDbPoint
 10
107.7761165406178
 20
710.121915078077
 30
0.0
  0
POINT
  5
F6
330
1F
100
AcDbEntity
  8
Bemaßungen_TC_020513_DIN_
 62
     7
100
AcDbPoint
 10
107.7761165406178
 20
598.121915078077
 30
0.0
  0
POINT
  5
F7
330
1F
100
AcDbEntity
  8
Bemaßungen_TC_020513_DIN_
 62
     7
100
AcDbPoint
 10
109.2761165406182
 20
719.121915078077
 30
0.0
  0
POINT
  5
F8
330
1F
100
AcDbEntity
  8
Bemaßungen_TC_020513_DIN_
 62
     7
100
AcDbPoint
 10
141.2761165406178
 20
719.121915078077
 30
0.0
  0
POINT
  5
F9
330
1F
100
AcDbEntity
  8
Bemaßungen_TC_020513_DIN_
 62
     7
100
AcDbPoint
 10
141.2761165406178
 20
719.121915078077
 30
0.0
  0
POINT
  5
FA
330
1F
100
AcDbEntity
  8
Bemaßungen_TC_020513_DIN_
 62
     7
100
AcDbPoint
 10
141.2761165406178
 20
589.121915078077
 30
0.0
  0
LWPOLYLINE
  5
169
330
1F
100
AcDbEntity
  8
Skizziergeometrie_TC_020513_DIN_
  6
Continuous
 62
     7
100
AcDbPolyline
 90
        2
 70
     0
 43
0.5
 10
107.7761165406178
 20
710.121915078077
 10
142.7761165406178
 20
710.121915078077
  0
LWPOLYLINE
  5
16A
330
1F
100
AcDbEntity
  8
Skizziergeometrie_TC_020513_DIN_
  6
Continuous
 62
     7
100
AcDbPolyline
 90
        2
 70
     0
 43
0.5
 10
142.7761165406178
 20
710.121915078077
 10
142.7761165406178
 20
598.121915078077
  0
LWPOLYLINE
  5
16B
330
1F
100
AcDbEntity
  8
Skizziergeometrie_TC_020513_DIN_
  6
Continuous
 62
     7
100
AcDbPolyline
 90
        2
 70
     0
 43
0.5
 10
142.7761165406178
 20
598.121915078077
 10
107.7761165406178
 20
598.121915078077
  0
LWPOLYLINE
  5
16C
330
1F
100
AcDbEntity
  8
Skizziergeometrie_TC_020513_DIN_
  6
Continuous
 62
     7
100
AcDbPolyline
 90
        2
 70
     0
 43
0.5
 10
107.7761165406178
 20
598.121915078077
 10
107.7761165406178
 20
710.121915078077
  0
LWPOLYLINE
  5
16D
330
1F
100
AcDbEntity
  8
Mittellinie_TC_020513_DIN_
  6
CHAIN
 62
     7
100
AcDbPolyline
 90
        2
 70
     0
 43
0.25
 10
101.7761165406182
 20
654.121915078077
 10
148.7761165406178
 20
654.121915078077
  0
LWPOLYLINE
  5
16E
330
1F
100
AcDbEntity
  8
Mittellinie_TC_020513_DIN_
  6
CHAIN
 62
     7
100
AcDbPolyline
 90
        2
 70
     0
 43
0.25
 10
125.2761165406178
 20
715.121915078077
 10
125.2761165406178
 20
597.121915078077
  0
LWPOLYLINE
  5
16F
330
1F
100
AcDbEntity
  8
Mittelpunktmarkierung_TC_020513_DIN_
  6
CHAIN
 62
     7
100
AcDbPolyline
 90
        2
 70
     0
 43
0.25
 10
116.5261165406182
 20
719.121915078077
 10
102.0261165406182
 20
719.121915078077
  0
LWPOLYLINE
  5
170
330
1F
100
AcDbEntity
  8
Mittelpunktmarkierung_TC_020513_DIN_
  6
CHAIN
 62
     7
100
AcDbPolyline
 90
        2
 70
     0
 43
0.25
 10
109.2761165406182
 20
726.371915078078
 10
109.2761165406182
 20
715.871915078077
  0
LWPOLYLINE
  5
171
330
1F
100
AcDbEntity
  8
Mittelpunktmarkierung_TC_020513_DIN_
  6
CHAIN
 62
     7
100
AcDbPolyline
 90
        2
 70
     0
 43
0.25
 10
148.5261165406178
 20
719.121915078077
 10
134.0261165406178
 20
719.121915078077
  0
LWPOLYLINE
  5
172
330
1F
100
AcDbEntity
  8
Mittelpunktmarkierung_TC_020513_DIN_
  6
CHAIN
 62
     7
100
AcDbPolyline
 90
        2
 70
     0
 43
0.25
 10
141.2761165406178
 20
726.371915078078
 10
141.2761165406178
 20
715.871915078077
  0
LWPOLYLINE
  5
173
330
1F
100
AcDbEntity
  8
Mittelpunktmarkierung_TC_020513_DIN_
  6
CHAIN
 62
     7
100
AcDbPolyline
 90
        2
 70
     0
 43
0.25
 10
148.5261165406178
 20
589.121915078077
 10
134.0261165406178
 20
589.121915078077
  0
LWPOLYLINE
  5
174
330
1F
100
AcDbEntity
  8
Mittelpunktmarkierung_TC_020513_DIN_
  6
CHAIN
 62
     7
100
AcDbPolyline
 90
        2
 70
     0
 43
0.25
 10
141.2761165406178
 20
596.371915078077
 10
141.2761165406178
 20
581.871915078077
  0
LWPOLYLINE
  5
175
330
1F
100
AcDbEntity
  8
Mittelpunktmarkierung_TC_020513_DIN_
  6
CHAIN
 62
     7
100
AcDbPolyline
 90
        2
 70
     0
 43
0.25
 10
116.5261165406182
 20
589.121915078077
 10
102.0261165406182
 20
589.121915078077
  0
LWPOLYLINE
  5
176
330
1F
100
AcDbEntity
  8
Mittelpunktmarkierung_TC_020513_DIN_
  6
CHAIN
 62
     7
100
AcDbPolyline
 90
        2
 70
     0
 43
0.25
 10
109.2761165406182
 20
596.371915078077
 10
109.2761165406182
 20
581.871915078077
  0
LWPOLYLINE
  5
197
330
1F
100
AcDbEntity
  8
Skizziergeometrie_TC_020513_DIN_
  6
Continuous
 62
     7
100
AcDbPolyline
 90
        2
 70
     1
 43
0.5
 10
107.0261165406182
 20
719.121915078077
 42
1.0
 10
111.5261165406182
 20
719.121915078077
 42
1.0
  0
LWPOLYLINE
  5
198
330
1F
100
AcDbEntity
  8
Skizziergeometrie_TC_020513_DIN_
  6
Continuous
 62
     7
100
AcDbPolyline
 90
        2
 70
     1
 43
0.5
 10
107.0261165406182
 20
589.121915078077
 42
1.0
 10
111.5261165406182
 20
589.121915078077
 42
1.0
  0
LWPOLYLINE
  5
199
330
1F
100
AcDbEntity
  8
Skizziergeometrie_TC_020513_DIN_
  6
Continuous
 62
     7
100
AcDbPolyline
 90
        2
 70
     1
 43
0.5
 10
139.0261165406178
 20
589.121915078077
 42
1.0
 10
143.5261165406178
 20
589.121915078077
 42
1.0
  0
LWPOLYLINE
  5
19A
330
1F
100
AcDbEntity
  8
Skizziergeometrie_TC_020513_DIN_
  6
Continuous
 62
     7
100
AcDbPolyline
 90
        2
 70
     1
 43
0.5
 10
139.0261165406178
 20
719.121915078077
 42
1.0
 10
143.5261165406178
 20
719.121915078077
 42
1.0
  0
LWPOLYLINE
  5
19B
330
1F
100
AcDbEntity
  8
Mittellinie_TC_020513_DIN0
  6
CHAIN
 62
     7
100
AcDbPolyline
 90
        2
 70
     0
 43
0.25
 10
392.4121647734658
 20
627.3897797436459
 10
392.4121647734658
 20
641.8897797436459
  0
LWPOLYLINE
  5
19C
330
1F
100
AcDbEntity
  8
Mittellinie_TC_020513_DIN0
  6
CHAIN
 62
     7
100
AcDbPolyline
 90
        2
 70
     0
 43
0.25
 10
262.4121647734658
 20
627.3897797436459
 10
262.4121647734658
 20
641.8897797436459
  0
LWPOLYLINE
  5
19D
330
1F
100
AcDbEntity
  8
Mittellinie_TC_020513_DIN0
  6
CHAIN
 62
     7
100
AcDbPolyline
 90
        2
 70
     0
 43
0.25
 10
327.4121647734658
 20
625.8897797436459
 10
327.4121647734648
 20
665.4822579568279
  0
LWPOLYLINE
  5
19E
330
1F
100
AcDbEntity
  8
Mittellinie_TC_020513_DIN0
  6
CHAIN
 62
     7
100
AcDbPolyline
 90
        2
 70
     0
 43
0.25
 10
455.6924042320308
 20
650.3897797436459
 10
470.4424042320308
 20
650.3897797436459
  0
LWPOLYLINE
  5
19F
330
1F
100
AcDbEntity
  8
Mittellinie_TC_020513_DIN0
  6
CHAIN
 62
     7
100
AcDbPolyline
 90
        2
 70
     0
 43
0.25
 10
506.9424042320308
 20
650.3897797436459
 10
521.6924042320308
 20
650.3897797436459
  0
LWPOLYLINE
  5
1A0
330
1F
100
AcDbEntity
  8
Mittellinie_TC_020513_DIN0
  6
CHAIN
 62
     7
100
AcDbPolyline
 90
        2
 70
     0
 43
0.25
 10
504.6924042320228
 20
627.3897797436459
 10
504.6924042320228
 20
641.8897797436459
  0
LWPOLYLINE
  5
1A1
330
1F
100
AcDbEntity
  8
Mittellinie_TC_020513_DIN0
  6
CHAIN
 62
     7
100
AcDbPolyline
 90
        2
 70
     0
 43
0.25
 10
472.6924042320228
 20
627.3897797436459
 10
472.6924042320228
 20
641.8897797436459
  0
LWPOLYLINE
  5
1A2
330
1F
100
AcDbEntity
  8
Mittellinie_TC_020513_DIN0
  6
CHAIN
 62
     7
100
AcDbPolyline
 90
        2
 70
     0
 43
0.25
 10
488.6924042320218
 20
625.8897797436459
 10
488.6924042320218
 20
663.8924192285419
  0
LWPOLYLINE
  5
1A3
330
1F
100
AcDbEntity
  8
Mittelpunktmarkierung_TC_020513_DIN0
  6
CHAIN
 62
     7
100
AcDbPolyline
 90
        2
 70
     0
 43
0.25
 10
364.6621647734658
 20
659.3897797436459
 10
364.6621647734658
 20
641.3897797436459
  0
LWPOLYLINE
  5
1A4
330
1F
100
AcDbEntity
  8
Mittelpunktmarkierung_TC_020513_DIN0
  6
CHAIN
 62
     7
100
AcDbPolyline
 90
        2
 70
     0
 43
0.25
 10
373.6621647734658
 20
650.3897797436459
 10
355.6621647734658
 20
650.3897797436459
  0
LWPOLYLINE
  5
1A5
330
1F
100
AcDbEntity
  8
Mittelpunktmarkierung_TC_020513_DIN0
  6
CHAIN
 62
     7
100
AcDbPolyline
 90
        2
 70
     0
 43
0.25
 10
290.1621647734658
 20
659.3897797436459
 10
290.1621647734658
 20
641.3897797436459
  0
LWPOLYLINE
  5
1A6
330
1F
100
AcDbEntity
  8
Mittelpunktmarkierung_TC_020513_DIN0
  6
CHAIN
 62
     7
100
AcDbPolyline
 90
        2
 70
     0
 43
0.25
 10
299.1621647734658
 20
650.3897797436459
 10
281.1621647734658
 20
650.3897797436459
  0
LWPOLYLINE
  5
1A7
330
1F
100
AcDbEntity
  8
Sichtbare_Kanten_TC_020513_DIN_
  6
Continuous
 62
     7
100
AcDbPolyline
 90
        2
 70
     0
 43
0.5
 10
465.9424042320218
 20
630.8897797436459
 10
470.9424042320208
 20
630.8897797436459
  0
LWPOLYLINE
  5
1A8
330
1F
100
AcDbEntity
  8
Sichtbare_Kanten_TC_020513_DIN_
  6
Continuous
 62
     7
100
AcDbPolyline
 90
        2
 70
     0
 43
0.5
 10
465.9424042320218
 20
630.8897797436459
 10
465.9424042320218
 20
634.3897797436459
  0
LWPOLYLINE
  5
1A9
330
1F
100
AcDbEntity
  8
Sichtbare_Kanten_TC_020513_DIN_
  6
Continuous
 62
     7
100
AcDbPolyline
 90
        2
 70
     0
 43
0.5
 10
506.4424042320208
 20
630.8897797436459
 10
470.9424042320208
 20
630.8897797436459
  0
LWPOLYLINE
  5
1AA
330
1F
100
AcDbEntity
  8
Sichtbare_Kanten_TC_020513_DIN_
  6
Continuous
 62
     7
100
AcDbPolyline
 90
        2
 70
     0
 43
0.5
 10
506.4424042320208
 20
630.8897797436459
 10
511.4424042320218
 20
630.8897797436459
  0
LWPOLYLINE
  5
1AB
330
1F
100
AcDbEntity
  8
Sichtbare_Kanten_TC_020513_DIN_
  6
Continuous
 62
     7
100
AcDbPolyline
 90
        2
 70
     0
 43
0.5
 10
511.4424042320218
 20
630.8897797436459
 10
511.4424042320218
 20
634.3897797436459
  0
LWPOLYLINE
  5
1AC
330
1F
100
AcDbEntity
  8
Sichtbare_Kanten_TC_020513_DIN_
  6
Continuous
 62
     7
100
AcDbPolyline
 90
        2
 70
     0
 43
0.5
 10
506.4424042320208
 20
634.3897797436459
 10
511.4424042320218
 20
634.3897797436459
  0
LWPOLYLINE
  5
1AD
330
1F
100
AcDbEntity
  8
Sichtbare_Kanten_TC_020513_DIN_
  6
Continuous
 62
     7
100
AcDbPolyline
 90
        2
 70
     0
 43
0.5
 10
506.4424042320208
 20
634.3897797436459
 10
470.9424042320208
 20
634.3897797436459
  0
LWPOLYLINE
  5
1AE
330
1F
100
AcDbEntity
  8
Sichtbare_Kanten_TC_020513_DIN_
  6
Continuous
 62
     7
100
AcDbPolyline
 90
        2
 70
     0
 43
0.5
 10
465.9424042320218
 20
634.3897797436459
 10
470.9424042320208
 20
634.3897797436459
  0
LWPOLYLINE
  5
1AF
330
1F
100
AcDbEntity
  8
Sichtbare_Kanten_TC_020513_DIN_
  6
Continuous
 62
     7
100
AcDbPolyline
 90
        2
 70
     0
 43
0.5
 10
466.6924042320258
 20
654.3897797436459
 10
466.6924042320258
 20
659.8897797436459
  0
LWPOLYLINE
  5
1B0
330
1F
100
AcDbEntity
  8
Sichtbare_Kanten_TC_020513_DIN_
  6
Continuous
 62
     7
100
AcDbPolyline
 90
        2
 70
     0
 43
0.5
 10
466.6924042320258
 20
659.8897797436459
 10
472.6924042320238
 20
659.8897797436459
  0
LWPOLYLINE
  5
1B1
330
1F
100
AcDbEntity
  8
Sichtbare_Kanten_TC_020513_DIN_
  6
Continuous
 62
     7
100
AcDbPolyline
 90
        2
 70
     0
 43
0.5
 10
504.6924042320238
 20
659.8897797436459
 10
472.6924042320238
 20
659.8897797436459
  0
LWPOLYLINE
  5
1B2
330
1F
100
AcDbEntity
  8
Sichtbare_Kanten_TC_020513_DIN_
  6
Continuous
 62
     7
100
AcDbPolyline
 90
        2
 70
     0
 43
0.5
 10
504.6924042320238
 20
659.8897797436459
 10
510.6924042320258
 20
659.8897797436459
  0
LWPOLYLINE
  5
1B3
330
1F
100
AcDbEntity
  8
Sichtbare_Kanten_TC_020513_DIN_
  6
Continuous
 62
     7
100
AcDbPolyline
 90
        2
 70
     0
 43
0.5
 10
510.6924042320258
 20
654.3897797436459
 10
510.6924042320258
 20
659.8897797436459
  0
LWPOLYLINE
  5
1B4
330
1F
100
AcDbEntity
  8
Sichtbare_Kanten_TC_020513_DIN_
  6
Continuous
 62
     7
100
AcDbPolyline
 90
        2
 70
     0
 43
0.5
 10
466.6924042320258
 20
654.3897797436459
 10
472.6924042320238
 20
654.3897797436459
  0
LWPOLYLINE
  5
1B5
330
1F
100
AcDbEntity
  8
Sichtbare_Kanten_TC_020513_DIN_
  6
Continuous
 62
     7
100
AcDbPolyline
 90
        2
 70
     0
 43
0.5
 10
504.6924042320238
 20
654.3897797436459
 10
472.6924042320238
 20
654.3897797436459
  0
LWPOLYLINE
  5
1B6
330
1F
100
AcDbEntity
  8
Sichtbare_Kanten_TC_020513_DIN_
  6
Continuous
 62
     7
100
AcDbPolyline
 90
        2
 70
     0
 43
0.5
 10
504.6924042320238
 20
654.3897797436459
 10
510.6924042320258
 20
654.3897797436459
  0
LWPOLYLINE
  5
1B7
330
1F
100
AcDbEntity
  8
Sichtbare_Kanten_TC_020513_DIN_
  6
Continuous
 62
     7
100
AcDbPolyline
 90
        2
 70
     0
 43
0.5
 10
467.9424042320218
 20
636.8897797436459
 10
470.9424042320208
 20
636.8897797436459
  0
LWPOLYLINE
  5
1B8
330
1F
100
AcDbEntity
  8
Sichtbare_Kanten_TC_020513_DIN_
  6
Continuous
 62
     7
100
AcDbPolyline
 90
        2
 70
     0
 43
0.5
 10
506.4424042320208
 20
636.8897797436459
 10
509.4424042320218
 20
636.8897797436459
  0
LWPOLYLINE
  5
1B9
330
1F
100
AcDbEntity
  8
Sichtbare_Kanten_TC_020513_DIN_
  6
Continuous
 62
     7
100
AcDbPolyline
 90
        2
 70
     0
 43
0.5
 10
506.4424042320208
 20
636.8897797436459
 10
470.9424042320208
 20
636.8897797436459
  0
LWPOLYLINE
  5
1BA
330
1F
100
AcDbEntity
  8
Sichtbare_Kanten_TC_020513_DIN_
  6
Continuous
 62
     7
100
AcDbPolyline
 90
        2
 70
     0
 43
0.5
 10
466.9424047088628
 20
637.889779624437
 10
466.9424047088618
 20
635.8897797436459
  0
LWPOLYLINE
  5
1BB
330
1F
100
AcDbEntity
  8
Sichtbare_Kanten_TC_020513_DIN_
  6
Continuous
 62
     7
100
AcDbPolyline
 90
        2
 70
     0
 43
0.5
 10
510.4424037551868
 20
635.8897797436459
 10
510.4424037551888
 20
637.889779624437
  0
LWPOLYLINE
  5
1BC
330
1F
100
AcDbEntity
  8
Sichtbare_Kanten_TC_020513_DIN_
  6
Continuous
 62
     7
100
AcDbPolyline
 90
        2
 70
     0
 43
0.5
 10
466.9424042320258
 20
637.8897797436459
 10
466.9424042320308
 20
654.3897797436459
  0
LWPOLYLINE
  5
1BD
330
1F
100
AcDbEntity
  8
Sichtbare_Kanten_TC_020513_DIN_
  6
Continuous
 62
     7
100
AcDbPolyline
 90
        2
 70
     0
 43
0.5
 10
466.9424042320218
 20
634.3897797436459
 10
466.9424042320218
 20
635.8897797436459
  0
LWPOLYLINE
  5
1BE
330
1F
100
AcDbEntity
  8
Sichtbare_Kanten_TC_020513_DIN_
  6
Continuous
 62
     7
100
AcDbPolyline
 90
        2
 70
     0
 43
0.5
 10
510.4424042320218
 20
634.3897797436459
 10
510.4424042320218
 20
635.8897797436459
  0
LWPOLYLINE
  5
1BF
330
1F
100
AcDbEntity
  8
Sichtbare_Kanten_TC_020513_DIN_
  6
Continuous
 62
     7
100
AcDbPolyline
 90
        2
 70
     0
 43
0.5
 10
510.4424042320258
 20
637.8897797436459
 10
510.4424042320308
 20
654.3897797436459
  0
LWPOLYLINE
  5
1C0
330
1F
100
AcDbEntity
  8
Sichtbare_Kanten_TC_020513_DIN_
  6
Continuous
 62
     7
100
AcDbPolyline
 90
        2
 70
     0
 43
0.5
 10
460.4424042320308
 20
648.1397797436459
 10
460.6924042320308
 20
647.8897797436459
  0
LWPOLYLINE
  5
1C1
330
1F
100
AcDbEntity
  8
Sichtbare_Kanten_TC_020513_DIN_
  6
Continuous
 62
     7
100
AcDbPolyline
 90
        2
 70
     0
 43
0.5
 10
460.4424042320308
 20
652.6397797436459
 10
460.6924042320308
 20
652.8897797436459
  0
LWPOLYLINE
  5
1C2
330
1F
100
AcDbEntity
  8
Sichtbare_Kanten_TC_020513_DIN_
  6
Continuous
 62
     7
100
AcDbPolyline
 90
        2
 70
     0
 43
0.5
 10
460.6924042320308
 20
647.8897797436459
 10
465.4424042320308
 20
647.8897797436459
  0
LWPOLYLINE
  5
1C3
330
1F
100
AcDbEntity
  8
Sichtbare_Kanten_TC_020513_DIN_
  6
Continuous
 62
     7
100
AcDbPolyline
 90
        2
 70
     0
 43
0.5
 10
460.6924042320308
 20
652.8897797436459
 10
465.4424042320308
 20
652.8897797436459
  0
LWPOLYLINE
  5
1C4
330
1F
100
AcDbEntity
  8
Sichtbare_Kanten_TC_020513_DIN_
  6
Continuous
 62
     7
100
AcDbPolyline
 90
        2
 70
     0
 43
0.5
 10
465.4424042320308
 20
647.8897797436459
 10
466.9424042320308
 20
646.3897797436459
  0
LWPOLYLINE
  5
1C5
330
1F
100
AcDbEntity
  8
Sichtbare_Kanten_TC_020513_DIN_
  6
Continuous
 62
     7
100
AcDbPolyline
 90
        2
 70
     0
 43
0.5
 10
465.4424042320308
 20
652.8897797436459
 10
466.9424042320308
 20
654.3897797436459
  0
LWPOLYLINE
  5
1C6
330
1F
100
AcDbEntity
  8
Sichtbare_Kanten_TC_020513_DIN_
  6
Continuous
 62
     7
100
AcDbPolyline
 90
        2
 70
     0
 43
0.5
 10
516.9424042320308
 20
652.6397797436459
 10
516.6924042320308
 20
652.8897797436459
  0
LWPOLYLINE
  5
1C7
330
1F
100
AcDbEntity
  8
Sichtbare_Kanten_TC_020513_DIN_
  6
Continuous
 62
     7
100
AcDbPolyline
 90
        2
 70
     0
 43
0.5
 10
516.9424042320308
 20
648.1397797436459
 10
516.6924042320308
 20
647.8897797436459
  0
LWPOLYLINE
  5
1C8
330
1F
100
AcDbEntity
  8
Sichtbare_Kanten_TC_020513_DIN_
  6
Continuous
 62
     7
100
AcDbPolyline
 90
        2
 70
     0
 43
0.5
 10
511.9424042320308
 20
647.8897797436459
 10
516.6924042320308
 20
647.8897797436459
  0
LWPOLYLINE
  5
1C9
330
1F
100
AcDbEntity
  8
Sichtbare_Kanten_TC_020513_DIN_
  6
Continuous
 62
     7
100
AcDbPolyline
 90
        2
 70
     0
 43
0.5
 10
511.9424042320308
 20
652.8897797436459
 10
516.6924042320308
 20
652.8897797436459
  0
LWPOLYLINE
  5
1CA
330
1F
100
AcDbEntity
  8
Sichtbare_Kanten_TC_020513_DIN_
  6
Continuous
 62
     7
100
AcDbPolyline
 90
        2
 70
     0
 43
0.5
 10
511.9424042320308
 20
652.8897797436459
 10
510.4424042320308
 20
654.3897797436459
  0
LWPOLYLINE
  5
1CB
330
1F
100
AcDbEntity
  8
Sichtbare_Kanten_TC_020513_DIN_
  6
Continuous
 62
     7
100
AcDbPolyline
 90
        2
 70
     0
 43
0.5
 10
511.9424042320308
 20
647.8897797436459
 10
510.4424042320308
 20
646.3897797436459
  0
LWPOLYLINE
  5
1CC
330
1F
100
AcDbEntity
  8
Sichtbare_Kanten_TC_020513_DIN_
  6
Continuous
 62
     7
100
AcDbPolyline
 90
        2
 70
     0
 43
0.5
 10
460.4424042320308
 20
648.1397797436459
 10
460.4424042320308
 20
652.6397797436459
  0
LWPOLYLINE
  5
1CD
330
1F
100
AcDbEntity
  8
Sichtbare_Kanten_TC_020513_DIN_
  6
Continuous
 62
     7
100
AcDbPolyline
 90
        2
 70
     0
 43
0.5
 10
460.6924042320308
 20
647.8897797436459
 10
460.6924042320308
 20
652.8897797436459
  0
LWPOLYLINE
  5
1CE
330
1F
100
AcDbEntity
  8
Sichtbare_Kanten_TC_020513_DIN_
  6
Continuous
 62
     7
100
AcDbPolyline
 90
        2
 70
     0
 43
0.5
 10
465.4424042320308
 20
647.8897797436459
 10
465.4424042320308
 20
652.8897797436459
  0
LWPOLYLINE
  5
1CF
330
1F
100
AcDbEntity
  8
Sichtbare_Kanten_TC_020513_DIN_
  6
Continuous
 62
     7
100
AcDbPolyline
 90
        2
 70
     0
 43
0.5
 10
516.9424042320308
 20
648.1397797436459
 10
516.9424042320308
 20
652.6397797436459
  0
LWPOLYLINE
  5
1D0
330
1F
100
AcDbEntity
  8
Sichtbare_Kanten_TC_020513_DIN_
  6
Continuous
 62
     7
100
AcDbPolyline
 90
        2
 70
     0
 43
0.5
 10
516.6924042320308
 20
647.8897797436459
 10
516.6924042320308
 20
652.8897797436459
  0
LWPOLYLINE
  5
1D1
330
1F
100
AcDbEntity
  8
Sichtbare_Kanten_TC_020513_DIN_
  6
Continuous
 62
     7
100
AcDbPolyline
 90
        2
 70
     0
 43
0.5
 10
511.9424042320308
 20
647.8897797436459
 10
511.9424042320308
 20
652.8897797436459
  0
LWPOLYLINE
  5
1D2
330
1F
100
AcDbEntity
  8
Sichtbare_Kanten_TC_020513_DIN_
  6
Continuous
 62
     7
100
AcDbPolyline
 90
        2
 70
     0
 43
0.5
 10
256.1621647734658
 20
630.8897797436459
 10
261.1621647734658
 20
630.8897797436459
  0
LWPOLYLINE
  5
1D3
330
1F
100
AcDbEntity
  8
Sichtbare_Kanten_TC_020513_DIN_
  6
Continuous
 62
     7
100
AcDbPolyline
 90
        2
 70
     0
 43
0.5
 10
256.1621647734658
 20
630.8897797436459
 10
256.1621647734658
 20
634.3897797436459
  0
LWPOLYLINE
  5
1D4
330
1F
100
AcDbEntity
  8
Sichtbare_Kanten_TC_020513_DIN_
  6
Continuous
 62
     7
100
AcDbPolyline
 90
        2
 70
     0
 43
0.5
 10
393.6621647734658
 20
630.8897797436459
 10
261.1621647734658
 20
630.8897797436459
  0
LWPOLYLINE
  5
1D5
330
1F
100
AcDbEntity
  8
Sichtbare_Kanten_TC_020513_DIN_
  6
Continuous
 62
     7
100
AcDbPolyline
 90
        2
 70
     0
 43
0.5
 10
393.6621647734658
 20
630.8897797436459
 10
398.6621647734658
 20
630.8897797436459
  0
LWPOLYLINE
  5
1D6
330
1F
100
AcDbEntity
  8
Sichtbare_Kanten_TC_020513_DIN_
  6
Continuous
 62
     7
100
AcDbPolyline
 90
        2
 70
     0
 43
0.5
 10
398.6621647734658
 20
630.8897797436459
 10
398.6621647734658
 20
634.3897797436459
  0
LWPOLYLINE
  5
1D7
330
1F
100
AcDbEntity
  8
Sichtbare_Kanten_TC_020513_DIN_
  6
Continuous
 62
     7
100
AcDbPolyline
 90
        2
 70
     0
 43
0.5
 10
393.6621647734658
 20
634.3897797436459
 10
398.6621647734658
 20
634.3897797436459
  0
LWPOLYLINE
  5
1D8
330
1F
100
AcDbEntity
  8
Sichtbare_Kanten_TC_020513_DIN_
  6
Continuous
 62
     7
100
AcDbPolyline
 90
        2
 70
     0
 43
0.5
 10
393.6621647734658
 20
634.3897797436459
 10
261.1621647734658
 20
634.3897797436459
  0
LWPOLYLINE
  5
1D9
330
1F
100
AcDbEntity
  8
Sichtbare_Kanten_TC_020513_DIN_
  6
Continuous
 62
     7
100
AcDbPolyline
 90
        2
 70
     0
 43
0.5
 10
256.1621647734658
 20
634.3897797436459
 10
261.1621647734658
 20
634.3897797436459
  0
LWPOLYLINE
  5
1DA
330
1F
100
AcDbEntity
  8
Sichtbare_Kanten_TC_020513_DIN_
  6
Continuous
 62
     7
100
AcDbPolyline
 90
        2
 70
     0
 43
0.5
 10
387.1621647734658
 20
637.8897797436459
 10
387.1621647734658
 20
654.3897797436459
  0
LWPOLYLINE
  5
1DB
330
1F
100
AcDbEntity
  8
Sichtbare_Kanten_TC_020513_DIN_
  6
Continuous
 62
     7
100
AcDbPolyline
 90
        2
 70
     0
 43
0.5
 10
267.6621647734658
 20
637.8897797436459
 10
267.6621647734658
 20
654.3897797436459
  0
LWPOLYLINE
  5
1DC
330
1F
100
AcDbEntity
  8
Sichtbare_Kanten_TC_020513_DIN_
  6
Continuous
 62
     7
100
AcDbPolyline
 90
        2
 70
     0
 43
0.5
 10
268.7631852878988
 20
636.8897797436459
 10
261.1621647734658
 20
636.8897797436459
  0
LWPOLYLINE
  5
1DD
330
1F
100
AcDbEntity
  8
Sichtbare_Kanten_TC_020513_DIN_
  6
Continuous
 62
     7
100
AcDbPolyline
 90
        2
 70
     0
 43
0.5
 10
258.1621647734658
 20
636.8897797436459
 10
261.1621647734658
 20
636.8897797436459
  0
LWPOLYLINE
  5
1DE
330
1F
100
AcDbEntity
  8
Sichtbare_Kanten_TC_020513_DIN_
  6
Continuous
 62
     7
100
AcDbPolyline
 90
        2
 70
     0
 43
0.5
 10
393.6621647734658
 20
636.8897797436459
 10
396.6621647734658
 20
636.8897797436459
  0
LWPOLYLINE
  5
1DF
330
1F
100
AcDbEntity
  8
Sichtbare_Kanten_TC_020513_DIN_
  6
Continuous
 62
     7
100
AcDbPolyline
 90
        2
 70
     0
 43
0.5
 10
393.6621647734658
 20
636.8897797436459
 10
386.0611442590318
 20
636.8897797436459
  0
LWPOLYLINE
  5
1E0
330
1F
100
AcDbEntity
  8
Sichtbare_Kanten_TC_020513_DIN_
  6
Continuous
 62
     7
100
AcDbPolyline
 90
        2
 70
     0
 43
0.5
 10
267.4121647734658
 20
654.3897797436459
 10
267.4121647734658
 20
659.8897797436459
  0
LWPOLYLINE
  5
1E1
330
1F
100
AcDbEntity
  8
Sichtbare_Kanten_TC_020513_DIN_
  6
Continuous
 62
     7
100
AcDbPolyline
 90
        2
 70
     0
 43
0.5
 10
267.4121647734658
 20
659.8897797436459
 10
273.4121647734658
 20
659.8897797436459
  0
LWPOLYLINE
  5
1E2
330
1F
100
AcDbEntity
  8
Sichtbare_Kanten_TC_020513_DIN_
  6
Continuous
 62
     7
100
AcDbPolyline
 90
        2
 70
     0
 43
0.5
 10
381.4121647734658
 20
659.8897797436459
 10
273.4121647734658
 20
659.8897797436459
  0
LWPOLYLINE
  5
1E3
330
1F
100
AcDbEntity
  8
Sichtbare_Kanten_TC_020513_DIN_
  6
Continuous
 62
     7
100
AcDbPolyline
 90
        2
 70
     0
 43
0.5
 10
381.4121647734658
 20
659.8897797436459
 10
387.4121647734658
 20
659.8897797436459
  0
LWPOLYLINE
  5
1E4
330
1F
100
AcDbEntity
  8
Sichtbare_Kanten_TC_020513_DIN_
  6
Continuous
 62
     7
100
AcDbPolyline
 90
        2
 70
     0
 43
0.5
 10
387.4121647734658
 20
654.3897797436459
 10
387.4121647734658
 20
659.8897797436459
  0
LWPOLYLINE
  5
1E5
330
1F
100
AcDbEntity
  8
Sichtbare_Kanten_TC_020513_DIN_
  6
Continuous
 62
     7
100
AcDbPolyline
 90
        2
 70
     0
 43
0.5
 10
267.4121647734658
 20
654.3897797436459
 10
273.4121647734658
 20
654.3897797436459
  0
LWPOLYLINE
  5
1E6
330
1F
100
AcDbEntity
  8
Sichtbare_Kanten_TC_020513_DIN_
  6
Continuous
 62
     7
100
AcDbPolyline
 90
        2
 70
     0
 43
0.5
 10
381.4121647734658
 20
654.3897797436459
 10
273.4121647734658
 20
654.3897797436459
  0
LWPOLYLINE
  5
1E7
330
1F
100
AcDbEntity
  8
Sichtbare_Kanten_TC_020513_DIN_
  6
Continuous
 62
     7
100
AcDbPolyline
 90
        2
 70
     0
 43
0.5
 10
381.4121647734658
 20
654.3897797436459
 10
387.4121647734658
 20
654.3897797436459
  0
LWPOLYLINE
  5
1E8
330
1F
100
AcDbEntity
  8
Sichtbare_Kanten_TC_020513_DIN_
  6
Continuous
 62
     7
100
AcDbPolyline
 90
        2
 70
     0
 43
0.5
 10
257.1621647734658
 20
634.3897797436459
 10
257.1621647734658
 20
635.8897797436459
  0
LWPOLYLINE
  5
1E9
330
1F
100
AcDbEntity
  8
Sichtbare_Kanten_TC_020513_DIN_
  6
Continuous
 62
     7
100
AcDbPolyline
 90
        2
 70
     0
 43
0.5
 10
397.6621647734658
 20
634.3897797436459
 10
397.6621647734658
 20
635.8897797436459
  0
LWPOLYLINE
  5
1EA
330
1F
100
AcDbEntity
  8
Sichtbare_Kanten_TC_020513_DIN_
  6
Continuous
 62
     7
100
AcDbPolyline
 90
        2
 70
     0
 43
0.5
 10
327.4121647734658
 20
643.6397797436459
 10
326.2871647734658
 20
645.193359557332
  0
LWPOLYLINE
  5
1EB
330
1F
100
AcDbEntity
  8
Sichtbare_Kanten_TC_020513_DIN_
  6
Continuous
 62
     7
100
AcDbPolyline
 90
        2
 70
     0
 43
0.5
 10
326.2871647734658
 20
645.193359557332
 10
326.2871647734658
 20
641.203000697283
  0
LWPOLYLINE
  5
1EC
330
1F
100
AcDbEntity
  8
Sichtbare_Kanten_TC_020513_DIN_
  6
Continuous
 62
     7
100
AcDbPolyline
 90
        2
 70
     0
 43
0.5
 10
325.5371647734658
 20
641.203000697283
 10
325.5371647734658
 20
646.3505972515469
  0
LWPOLYLINE
  5
1ED
330
1F
100
AcDbEntity
  8
Sichtbare_Kanten_TC_020513_DIN_
  6
Continuous
 62
     7
100
AcDbPolyline
 90
        2
 70
     0
 43
0.5
 10
326.2158936329558
 20
646.570537652367
 10
327.4121647734658
 20
644.918535256286
  0
LWPOLYLINE
  5
1EE
330
1F
100
AcDbEntity
  8
Sichtbare_Kanten_TC_020513_DIN_
  6
Continuous
 62
     7
100
AcDbPolyline
 90
        2
 70
     0
 43
0.5
 10
327.4121647734658
 20
644.918535256286
 10
328.6084359139748
 20
646.570537652367
  0
LWPOLYLINE
  5
1EF
330
1F
100
AcDbEntity
  8
Sichtbare_Kanten_TC_020513_DIN_
  6
Continuous
 62
     7
100
AcDbPolyline
 90
        2
 70
     0
 43
0.5
 10
329.2871647734658
 20
646.3505972515469
 10
329.2871647734658
 20
639.4289622357439
  0
LWPOLYLINE
  5
1F0
330
1F
100
AcDbEntity
  8
Sichtbare_Kanten_TC_020513_DIN_
  6
Continuous
 62
     7
100
AcDbPolyline
 90
        2
 70
     0
 43
0.5
 10
328.5371647734658
 20
639.4289622357439
 10
328.5371647734658
 20
645.193359557332
  0
LWPOLYLINE
  5
1F1
330
1F
100
AcDbEntity
  8
Sichtbare_Kanten_TC_020513_DIN_
  6
Continuous
 62
     7
100
AcDbPolyline
 90
        2
 70
     0
 43
0.5
 10
328.5371647734658
 20
645.193359557332
 10
327.4121647734658
 20
643.6397797436459
  0
LWPOLYLINE
  5
1F2
330
1F
100
AcDbEntity
  8
Sichtbare_Kanten_TC_020513_DIN_
  6
Continuous
 62
     7
100
AcDbPolyline
 90
        2
 70
     0
 43
0.5
 10
324.7121647734658
 20
645.4419434053939
 10
324.7121647734658
 20
640.5542025536229
  0
LWPOLYLINE
  5
1F3
330
1F
100
AcDbEntity
  8
Sichtbare_Kanten_TC_020513_DIN_
  6
Continuous
 62
     7
100
AcDbPolyline
 90
        2
 70
     0
 43
0.5
 10
324.7121647734658
 20
640.5542025536229
 10
327.5995606935238
 20
638.888397215128
  0
LWPOLYLINE
  5
1F4
330
1F
100
AcDbEntity
  8
Sichtbare_Kanten_TC_020513_DIN_
  6
Continuous
 62
     7
100
AcDbPolyline
 90
        2
 70
     0
 43
0.5
 10
327.2247688534068
 20
638.238758025591
 10
324.1497688534068
 20
640.0127964871299
  0
LWPOLYLINE
  5
1F5
330
1F
100
AcDbEntity
  8
Sichtbare_Kanten_TC_020513_DIN_
  6
Continuous
 62
     7
100
AcDbPolyline
 90
        2
 70
     0
 43
0.5
 10
323.9621647734658
 20
640.337616081898
 10
323.9621647734658
 20
645.4419434053939
  0
LWPOLYLINE
  5
1F6
330
1F
100
AcDbEntity
  8
Sichtbare_Kanten_TC_020513_DIN_
  6
Continuous
 62
     7
100
AcDbPolyline
 90
        2
 70
     0
 43
0.5
 10
327.4121647734658
 20
648.081847118075
 10
318.4125813244558
 20
642.8897797436459
  0
LWPOLYLINE
  5
1F7
330
1F
100
AcDbEntity
  8
Sichtbare_Kanten_TC_020513_DIN_
  6
Continuous
 62
     7
100
AcDbPolyline
 90
        2
 70
     0
 43
0.5
 10
336.4117482224758
 20
642.8897797436459
 10
327.4121647734658
 20
648.081847118075
  0
LWPOLYLINE
  5
1F8
330
1F
100
AcDbEntity
  8
Sichtbare_Kanten_TC_020513_DIN_
  6
Continuous
 62
     7
100
AcDbPolyline
 90
        2
 70
     0
 43
0.5
 10
327.4121647734658
 20
637.6977123692169
 10
336.4117482224758
 20
642.8897797436459
  0
LWPOLYLINE
  5
1F9
330
1F
100
AcDbEntity
  8
Sichtbare_Kanten_TC_020513_DIN_
  6
Continuous
 62
     7
100
AcDbPolyline
 90
        2
 70
     0
 43
0.5
 10
318.4125813244558
 20
642.8897797436459
 10
327.4121647734658
 20
637.6977123692169
  0
LWPOLYLINE
  5
1FA
330
1F
100
AcDbEntity
  8
Sichtbare_Kanten_TC_020513_DIN_
  6
Continuous
 62
     7
100
AcDbPolyline
 90
        2
 70
     0
 43
0.5
 10
323.2121647734658
 20
644.5765587900089
 10
323.2121647734658
 20
641.203000697283
  0
LWPOLYLINE
  5
1FB
330
1F
100
AcDbEntity
  8
Sichtbare_Kanten_TC_020513_DIN_
  6
Continuous
 62
     7
100
AcDbPolyline
 90
        2
 70
     0
 43
0.5
 10
322.4621647734658
 20
641.203000697283
 10
322.4621647734658
 20
644.5765587900089
  0
LWPOLYLINE
  5
1FC
330
1F
100
AcDbEntity
  8
Sichtbare_Kanten_TC_020513_DIN_
  6
Continuous
 62
     7
100
AcDbPolyline
 90
        2
 70
     0
 43
0.5
 10
330.5995606935238
 20
645.8100322309309
 10
332.8495606935238
 20
644.5119553078539
  0
LWPOLYLINE
  5
1FD
330
1F
100
AcDbEntity
  8
Sichtbare_Kanten_TC_020513_DIN_
  6
Continuous
 62
     7
100
AcDbPolyline
 90
        2
 70
     0
 43
0.5
 10
332.4747688534068
 20
643.862316118318
 10
330.7871647734658
 20
644.835933856745
  0
LWPOLYLINE
  5
1FE
330
1F
100
AcDbEntity
  8
Sichtbare_Kanten_TC_020513_DIN_
  6
Continuous
 62
     7
100
AcDbPolyline
 90
        2
 70
     0
 43
0.5
 10
330.7871647734658
 20
644.835933856745
 10
330.7871647734658
 20
643.2647797436459
  0
LWPOLYLINE
  5
1FF
330
1F
100
AcDbEntity
  8
Sichtbare_Kanten_TC_020513_DIN_
  6
Continuous
 62
     7
100
AcDbPolyline
 90
        2
 70
     0
 43
0.5
 10
330.7871647734658
 20
643.2647797436459
 10
332.6621647734658
 20
643.2647797436459
  0
LWPOLYLINE
  5
200
330
1F
100
AcDbEntity
  8
Sichtbare_Kanten_TC_020513_DIN_
  6
Continuous
 62
     7
100
AcDbPolyline
 90
        2
 70
     0
 43
0.5
 10
332.6621647734658
 20
642.5147797436459
 10
330.7871647734658
 20
642.5147797436459
  0
LWPOLYLINE
  5
201
330
1F
100
AcDbEntity
  8
Sichtbare_Kanten_TC_020513_DIN_
  6
Continuous
 62
     7
100
AcDbPolyline
 90
        2
 70
     0
 43
0.5
 10
330.7871647734658
 20
642.5147797436459
 10
330.7871647734658
 20
640.943625630546
  0
LWPOLYLINE
  5
202
330
1F
100
AcDbEntity
  8
Sichtbare_Kanten_TC_020513_DIN_
  6
Continuous
 62
     7
100
AcDbPolyline
 90
        2
 70
     0
 43
0.5
 10
330.7871647734658
 20
640.943625630546
 10
332.4747688534068
 20
641.9172433689739
  0
LWPOLYLINE
  5
203
330
1F
100
AcDbEntity
  8
Sichtbare_Kanten_TC_020513_DIN_
  6
Continuous
 62
     7
100
AcDbPolyline
 90
        2
 70
     0
 43
0.5
 10
332.8495606935238
 20
641.267604179438
 10
330.5995606935238
 20
639.969527256361
  0
LWPOLYLINE
  5
204
330
1F
100
AcDbEntity
  8
Sichtbare_Kanten_TC_020513_DIN_
  6
Continuous
 62
     7
100
AcDbPolyline
 90
        2
 70
     0
 43
0.5
 10
330.0371647734658
 20
640.2943468511289
 10
330.0371647734658
 20
645.4852126361629
  0
LWPOLYLINE
  5
205
330
1F
100
AcDbEntity
  8
Sichtbare_Kanten_TC_020513_DIN_
  6
Continuous
 62
     7
100
AcDbPolyline
 90
        2
 70
     0
 43
0.5
 10
337.1621647734658
 20
642.8897797436459
 10
327.4121647734658
 20
637.2647797436459
  0
LWPOLYLINE
  5
206
330
1F
100
AcDbEntity
  8
Sichtbare_Kanten_TC_020513_DIN_
  6
Continuous
 62
     7
100
AcDbPolyline
 90
        2
 70
     0
 43
0.5
 10
327.4121647734658
 20
648.5147797436459
 10
337.1621647734658
 20
642.8897797436459
  0
LWPOLYLINE
  5
207
330
1F
100
AcDbEntity
  8
Sichtbare_Kanten_TC_020513_DIN_
  6
Continuous
 62
     7
100
AcDbPolyline
 90
        2
 70
     0
 43
0.5
 10
317.6621647734658
 20
642.8897797436459
 10
327.4121647734658
 20
648.5147797436459
  0
LWPOLYLINE
  5
208
330
1F
100
AcDbEntity
  8
Sichtbare_Kanten_TC_020513_DIN_
  6
Continuous
 62
     7
100
AcDbPolyline
 90
        2
 70
     0
 43
0.5
 10
327.4121647734658
 20
637.2647797436459
 10
317.6621647734658
 20
642.8897797436459
  0
LWPOLYLINE
  5
209
330
1F
100
AcDbEntity
  8
Sichtbare_Kanten_TC_020513_DIN_
  6
Continuous
 62
     7
100
AcDbPolyline
 90
        2
 70
     0
 43
0.5
 10
467.9424042320218
 20
636.8897797436459
 42
0.4142135623731
 10
466.9424042320218
 20
635.8897797436459
  0
LWPOLYLINE
  5
20A
330
1F
100
AcDbEntity
  8
Sichtbare_Kanten_TC_020513_DIN_
  6
Continuous
 62
     7
100
AcDbPolyline
 90
        2
 70
     0
 43
0.5
 10
510.4424042320218
 20
635.8897797436459
 42
0.4142135623731
 10
509.4424042320218
 20
636.8897797436459
  0
LWPOLYLINE
  5
20B
330
1F
100
AcDbEntity
  8
Sichtbare_Kanten_TC_020513_DIN_
  6
Continuous
 62
     7
100
AcDbPolyline
 90
        2
 70
     0
 43
0.5
 10
266.6621647734658
 20
636.8897797436459
 42
0.4142135623731
 10
267.6621647734658
 20
637.8897797436459
  0
LWPOLYLINE
  5
20C
330
1F
100
AcDbEntity
  8
Sichtbare_Kanten_TC_020513_DIN_
  6
Continuous
 62
     7
100
AcDbPolyline
 90
        2
 70
     0
 43
0.5
 10
387.1621647734658
 20
637.8897797436459
 42
0.4142135623731
 10
388.1621647734658
 20
636.8897797436459
  0
LWPOLYLINE
  5
20D
330
1F
100
AcDbEntity
  8
Sichtbare_Kanten_TC_020513_DIN_
  6
Continuous
 62
     7
100
AcDbPolyline
 90
        2
 70
     0
 43
0.5
 10
258.1621647734658
 20
636.8897797436459
 42
0.4142135623731
 10
257.1621647734658
 20
635.8897797436459
  0
LWPOLYLINE
  5
20E
330
1F
100
AcDbEntity
  8
Sichtbare_Kanten_TC_020513_DIN_
  6
Continuous
 62
     7
100
AcDbPolyline
 90
        2
 70
     0
 43
0.5
 10
397.6621647734658
 20
635.8897797436459
 42
0.4142135623731
 10
396.6621647734658
 20
636.8897797436459
  0
LWPOLYLINE
  5
20F
330
1F
100
AcDbEntity
  8
Sichtbare_Kanten_TC_020513_DIN_
  6
Continuous
 62
     7
100
AcDbPolyline
 90
        2
 70
     0
 43
0.5
 10
325.5371647734658
 20
641.203000697283
 42
1.0
 10
326.2871647734658
 20
641.203000697283
  0
LWPOLYLINE
  5
210
330
1F
100
AcDbEntity
  8
Sichtbare_Kanten_TC_020513_DIN_
  6
Continuous
 62
     7
100
AcDbPolyline
 90
        2
 70
     0
 43
0.5
 10
326.2158936329558
 20
646.570537652367
 42
0.72714551713682
 10
325.5371647734658
 20
646.3505972515469
  0
LWPOLYLINE
  5
211
330
1F
100
AcDbEntity
  8
Sichtbare_Kanten_TC_020513_DIN_
  6
Continuous
 62
     7
100
AcDbPolyline
 90
        2
 70
     0
 43
0.5
 10
329.2871647734658
 20
646.3505972515469
 42
0.7271455171374
 10
328.6084359139748
 20
646.570537652367
  0
LWPOLYLINE
  5
212
330
1F
100
AcDbEntity
  8
Sichtbare_Kanten_TC_020513_DIN_
  6
Continuous
 62
     7
100
AcDbPolyline
 90
        2
 70
     0
 43
0.5
 10
328.5371647734658
 20
639.4289622357439
 42
1.0
 10
329.2871647734658
 20
639.4289622357439
  0
LWPOLYLINE
  5
213
330
1F
100
AcDbEntity
  8
Sichtbare_Kanten_TC_020513_DIN_
  6
Continuous
 62
     7
100
AcDbPolyline
 90
        2
 70
     0
 43
0.5
 10
324.7121647734658
 20
645.4419434053939
 42
1.0
 10
323.9621647734658
 20
645.4419434053939
  0
LWPOLYLINE
  5
214
330
1F
100
AcDbEntity
  8
Sichtbare_Kanten_TC_020513_DIN_
  6
Continuous
 62
     7
100
AcDbPolyline
 90
        2
 70
     0
 43
0.5
 10
327.2247688534068
 20
638.238758025591
 42
1.00000000000197
 10
327.5995606935238
 20
638.888397215128
  0
LWPOLYLINE
  5
215
330
1F
100
AcDbEntity
  8
Sichtbare_Kanten_TC_020513_DIN_
  6
Continuous
 62
     7
100
AcDbPolyline
 90
        2
 70
     0
 43
0.5
 10
323.9621647734658
 20
640.337616081898
 42
0.26803505952175
 10
324.1497688534068
 20
640.0127964871299
  0
LWPOLYLINE
  5
216
330
1F
100
AcDbEntity
  8
Sichtbare_Kanten_TC_020513_DIN_
  6
Continuous
 62
     7
100
AcDbPolyline
 90
        2
 70
     0
 43
0.5
 10
322.4621647734658
 20
641.203000697283
 42
1.0
 10
323.2121647734658
 20
641.203000697283
  0
LWPOLYLINE
  5
217
330
1F
100
AcDbEntity
  8
Sichtbare_Kanten_TC_020513_DIN_
  6
Continuous
 62
     7
100
AcDbPolyline
 90
        2
 70
     0
 43
0.5
 10
323.2121647734658
 20
644.5765587900089
 42
1.0
 10
322.4621647734658
 20
644.5765587900089
  0
LWPOLYLINE
  5
218
330
1F
100
AcDbEntity
  8
Sichtbare_Kanten_TC_020513_DIN_
  6
Continuous
 62
     7
100
AcDbPolyline
 90
        2
 70
     0
 43
0.5
 10
330.5995606935238
 20
645.8100322309309
 42
0.57724345630744
 10
330.0371647734658
 20
645.4852126361629
  0
LWPOLYLINE
  5
219
330
1F
100
AcDbEntity
  8
Sichtbare_Kanten_TC_020513_DIN_
  6
Continuous
 62
     7
100
AcDbPolyline
 90
        2
 70
     0
 43
0.5
 10
332.4747688534068
 20
643.862316118318
 42
1.00000000000122
 10
332.8495606935238
 20
644.5119553078539
  0
LWPOLYLINE
  5
21A
330
1F
100
AcDbEntity
  8
Sichtbare_Kanten_TC_020513_DIN_
  6
Continuous
 62
     7
100
AcDbPolyline
 90
        2
 70
     0
 43
0.5
 10
332.6621647734658
 20
642.5147797436459
 42
1.0
 10
332.6621647734658
 20
643.2647797436459
  0
LWPOLYLINE
  5
21B
330
1F
100
AcDbEntity
  8
Sichtbare_Kanten_TC_020513_DIN_
  6
Continuous
 62
     7
100
AcDbPolyline
 90
        2
 70
     0
 43
0.5
 10
332.8495606935238
 20
641.267604179438
 42
1.00000000000122
 10
332.4747688534068
 20
641.9172433689739
  0
LWPOLYLINE
  5
21C
330
1F
100
AcDbEntity
  8
Sichtbare_Kanten_TC_020513_DIN_
  6
Continuous
 62
     7
100
AcDbPolyline
 90
        2
 70
     0
 43
0.5
 10
330.0371647734658
 20
640.2943468511289
 42
0.57724345630744
 10
330.5995606935238
 20
639.969527256361
  0
LWPOLYLINE
  5
21D
330
1F
100
AcDbEntity
  8
Sichtbare_Kanten_TC_020513_DIN_
  6
Continuous
 62
     7
100
AcDbPolyline
 90
        3
 70
     0
 43
0.5
 10
362.4121647734658
 20
650.3897797436459
 42
1.0
 10
366.9121647734658
 20
650.3897797436459
 42
1.0
 10
362.4121647734658
 20
650.3897797436459
  0
LWPOLYLINE
  5
21E
330
1F
100
AcDbEntity
  8
Sichtbare_Kanten_TC_020513_DIN_
  6
Continuous
 62
     7
100
AcDbPolyline
 90
        3
 70
     0
 43
0.5
 10
362.1621647734658
 20
650.3897797436459
 42
1.0
 10
367.1621647734658
 20
650.3897797436459
 42
1.0
 10
362.1621647734658
 20
650.3897797436459
  0
LWPOLYLINE
  5
21F
330
1F
100
AcDbEntity
  8
Sichtbare_Kanten_TC_020513_DIN_
  6
Continuous
 62
     7
100
AcDbPolyline
 90
        3
 70
     0
 43
0.5
 10
360.6621647734658
 20
650.3897797436459
 42
1.0
 10
368.6621647734658
 20
650.3897797436459
 42
1.0
 10
360.6621647734658
 20
650.3897797436459
  0
LWPOLYLINE
  5
220
330
1F
100
AcDbEntity
  8
Sichtbare_Kanten_TC_020513_DIN_
  6
Continuous
 62
     7
100
AcDbPolyline
 90
        3
 70
     0
 43
0.5
 10
287.9121647734658
 20
650.3897797436459
 42
1.0
 10
292.4121647734658
 20
650.3897797436459
 42
1.0
 10
287.9121647734658
 20
650.3897797436459
  0
LWPOLYLINE
  5
221
330
1F
100
AcDbEntity
  8
Sichtbare_Kanten_TC_020513_DIN_
  6
Continuous
 62
     7
100
AcDbPolyline
 90
        3
 70
     0
 43
0.5
 10
287.6621647734658
 20
650.3897797436459
 42
1.0
 10
292.6621647734658
 20
650.3897797436459
 42
1.0
 10
287.6621647734658
 20
650.3897797436459
  0
LWPOLYLINE
  5
222
330
1F
100
AcDbEntity
  8
Sichtbare_Kanten_TC_020513_DIN_
  6
Continuous
 62
     7
100
AcDbPolyline
 90
        3
 70
     0
 43
0.5
 10
286.1621647734658
 20
650.3897797436459
 42
1.0
 10
294.1621647734658
 20
650.3897797436459
 42
1.0
 10
286.1621647734658
 20
650.3897797436459
  0
TEXT
  5
223
330
1F
100
AcDbEntity
  8
Symbole_ISO_
 62
     7
100
AcDbText
 10
520.1270077194469
 20
444.6601102983129
 30
0.0
 40
10.0
  1
1:2
 41
0.67499998211861
  7
CONVERTER_13
100
AcDbText
  0
MTEXT
  5
224
330
1F
100
AcDbEntity
  8
Symbole_TC_020513_DIN_
 62
     7
100
AcDbMText
 10
96.2175615965918
 20
776.2766873773761
 30
0.0
 40
6.99999988079071
 41
0.0
 71
     1
 72
     1
  1
panel\Pcut\Pout
  7
CONVERTER_11
 73
     1
 44
0.75727272727273
  0
TEXT
  5
226
330
1F
100
AcDbEntity
  8
Symbole_ISO0
 62
     7
100
AcDbText
 10
293.5160934360978
 20
443.1601102387083
 30
0.0
 40
8.00000011920929
  1
bulkhead h. with pegs
 41
0.46875
  7
CONVERTER_14
100
AcDbText
  0
TEXT
  5
228
330
1F
100
AcDbEntity
  8
Symbole_ISO0
 62
     7
100
AcDbText
 10
293.5160934360978
 20
458.1601102387083
 30
0.0
 40
8.00000011920929
  1
CHI 24 C
 41
0.56249996647239
  7
CONVERTER_15
100
AcDbText
  0
DIMENSION
  5
233
330
1F
100
AcDbEntity
  8
Bemaßungen_TC_020513_DIN0
100
AcDbDimension
  2
*D4
 10
562.4424042320201
 20
659.8897797436459
 30
0.0
 11
554.3560739462048
 21
646.0492886113129
 31
0.0
 70
    32
  1
29
 71
     5
 42
-1.0
 53
90.0
  3
ME10_DIM_10
100
AcDbAlignedDimension
 13
506.4424042320208
 23
630.8897797436459
 33
0.0
 14
504.6924042320238
 24
659.8897797436459
 34
0.0
 50
90.0
100
AcDbRotatedDimension
  0
DIMENSION
  5
23E
330
1F
100
AcDbEntity
  8
Bemaßungen_TC_020513_DIN0
100
AcDbDimension
  2
*D5
 10
538.442404232021
 20
630.8897797436459
 30
0.0
 11
530.3560739462058
 21
617.537678788666
 31
0.0
 70
    32
  1
6
 71
     5
 42
-1.0
 53
90.0
  3
ME10_DIM_11
100
AcDbAlignedDimension
 13
506.4424042320208
 23
636.8897797436459
 33
0.0
 14
506.4424042320208
 24
630.8897797436459
 34
0.0
 50
90.0
100
AcDbRotatedDimension
  0
DIMENSION
  5
249
330
1F
100
AcDbEntity
  8
Bemaßungen_TC_020513_DIN0
100
AcDbDimension
  2
*D6
 10
465.9424042320218
 20
598.8898006148622
 30
0.0
 11
490.9138776290208
 21
608.717783653157
 31
0.0
 70
    32
  1
45,5
 71
     5
 42
-1.0
 53
0.00013888888889
  3
ME10_DIM_12
100
AcDbAlignedDimension
 13
511.4424042320218
 23
630.8897797436459
 33
0.0
 14
465.9424042320218
 24
630.8897797436459
 34
0.0
100
AcDbRotatedDimension
  0
DIMENSION
  5
254
330
1F
100
AcDbEntity
  8
Bemaßungen_TC_020513_DIN0
100
AcDbDimension
  2
*D7
 10
398.6621647734657
 20
598.8898058326694
 30
0.0
 11
330.2546613628248
 21
608.7638459745649
 31
0.0
 70
    32
  1
142,5
 71
     5
 42
-1.0
 53
0.00013888888889
  3
ME10_DIM_13
100
AcDbAlignedDimension
 13
256.1621647734658
 23
630.8897797436459
 33
0.0
 14
398.6621647734658
 24
630.8897797436459
 34
0.0
100
AcDbRotatedDimension
  0
DIMENSION
  5
25F
330
1F
100
AcDbEntity
  8
Bemaßungen_TC_020513_DIN_
100
AcDbDimension
  2
*D8
 10
107.7761165406182
 20
554.7836066203662
 30
0.0
 11
125.6945911543864
 21
562.874711803862
 31
0.0
 70
    32
  1
35
 71
     5
 42
-1.0
 53
0.00013888888889
  3
ME10_DIM_14
100
AcDbAlignedDimension
 13
142.7761165406178
 23
598.121915078077
 33
0.0
 14
107.7761165406178
 24
598.121915078077
 34
0.0
100
AcDbRotatedDimension
  0
DIMENSION
  5
26A
330
1F
100
AcDbEntity
  8
Bemaßungen_TC_020513_DIN_
100
AcDbDimension
  2
*D9
 10
86.11442499832964
 20
710.121915078077
 30
0.0
 11
78.06292058316126
 21
656.0050686094022
 31
0.0
 70
    32
  1
112
 71
     5
 42
-1.0
 53
90.0
  3
ME10_DIM_15
100
AcDbAlignedDimension
 13
107.7761165406178
 23
598.121915078077
 33
0.0
 14
107.7761165406178
 24
710.121915078077
 34
0.0
 50
90.0
100
AcDbRotatedDimension
  0
DIMENSION
  5
275
330
1F
100
AcDbEntity
  8
Bemaßungen_TC_020513_DIN_
100
AcDbDimension
  2
*D10
 10
109.2761165406179
 20
739.1219150780776
 30
0.0
 11
126.0406731572618
 21
747.874711803862
 31
0.0
 70
    32
  1
32
 71
     5
 42
-1.0
 53
0.00013888888889
  3
ME10_DIM_16
100
AcDbAlignedDimension
 13
141.2761165406178
 23
719.121915078077
 33
0.0
 14
109.2761165406182
 24
719.121915078077
 34
0.0
100
AcDbRotatedDimension
  0
DIMENSION
  5
280
330
1F
100
AcDbEntity
  8
Bemaßungen_TC_020513_DIN_
100
AcDbDimension
  2
*D11
 10
173.2761165406183
 20
719.1219150780776
 30
0.0
 11
164.5233198148338
 21
655.3403734682549
 31
0.0
 70
    32
  1
130
 71
     5
 42
-1.0
 53
90.0
  3
ME10_DIM_17
100
AcDbAlignedDimension
 13
141.2761165406178
 23
589.121915078077
 33
0.0
 14
141.2761165406178
 24
719.121915078077
 34
0.0
 50
90.0
100
AcDbRotatedDimension
  0
ENDSEC
  0
SECTION
  2
OBJECTS
  0
DICTIONARY
  5
C
330
0
100
AcDbDictionary
281
     1
  3
ACAD_GROUP
350
D
  3
ACAD_LAYOUT
350
1A
  3
ACAD_MATERIAL
350
3B
  3
ACAD_MLEADERSTYLE
350
283
  3
ACAD_MLINESTYLE
350
17
  3
ACAD_PLOTSETTINGS
350
19
  3
ACAD_PLOTSTYLENAME
350
E
  3
ACAD_VISUALSTYLE
350
2A
  3
AcDbVariableDictionary
350
281
  0
DICTIONARY
  5
D
102
{ACAD_REACTORS
330
C
102
}
330
C
100
AcDbDictionary
281
     1
  0
DICTIONARY
  5
1A
102
{ACAD_REACTORS
330
C
102
}
330
C
100
AcDbDictionary
281
     1
  3
Layout1
350
1E
  3
Layout2
350
26
  3
Model
350
22
  0
DICTIONARY
  5
3B
102
{ACAD_REACTORS
330
C
102
}
330
C
100
AcDbDictionary
281
     1
  3
ByBlock
350
3D
  3
ByLayer
350
3C
  3
Global
350
3E
  0
DICTIONARY
  5
283
102
{ACAD_REACTORS
330
C
102
}
330
C
100
AcDbDictionary
281
     1
  0
DICTIONARY
  5
17
102
{ACAD_REACTORS
330
C
102
}
330
C
100
AcDbDictionary
281
     1
  3
Standard
350
18
  0
DICTIONARY
  5
19
102
{ACAD_REACTORS
330
C
102
}
330
C
100
AcDbDictionary
281
     1
  0
ACDBDICTIONARYWDFLT
  5
E
102
{ACAD_REACTORS
330
C
102
}
330
C
100
AcDbDictionary
281
     1
  3
Normal
350
F
100
AcDbDictionaryWithDefault
340
F
  0
DICTIONARY
  5
2A
102
{ACAD_REACTORS
330
C
102
}
330
C
100
AcDbDictionary
281
     1
  3
2dWireframe
350
2F
  3
3D Hidden
350
31
  3
3dWireframe
350
30
  3
Basic
350
32
  3
Brighten
350
36
  3
ColorChange
350
3A
  3
Conceptual
350
34
  3
Dim
350
35
  3
Facepattern
350
39
  3
Flat
350
2B
  3
FlatWithEdges
350
2C
  3
Gouraud
350
2D
  3
GouraudWithEdges
350
2E
  3
Linepattern
350
38
  3
Realistic
350
33
  3
Thicken
350
37
  0
DICTIONARY
  5
281
102
{ACAD_REACTORS
330
C
102
}
330
C
100
AcDbDictionary
281
     1
  3
DIMASSOC
350
284
  3
HIDETEXT
350
285
  0
LAYOUT
  5
1E
102
{ACAD_REACTORS
330
1A
102
}
330
1A
100
AcDbPlotSettings
  1

  2
none_device
  4

  6

 40
0.0
 41
0.0
 42
0.0
 43
0.0
 44
0.0
 45
0.0
 46
0.0
 47
0.0
 48
0.0
 49
0.0
140
0.0
141
0.0
142
1.0
143
1.0
 70
   688
 72
     0
 73
     0
 74
     5
  7

 75
    16
147
1.0
148
0.0
149
0.0
100
AcDbLayout
  1
Layout1
 70
     1
 71
     1
 10
0.0
 20
0.0
 11
12.0
 21
9.0
 12
0.0
 22
0.0
 32
0.0
 14
1.00000000000000E+20
 24
1.00000000000000E+20
 34
1.00000000000000E+20
 15
-1.00000000000000E+20
 25
-1.00000000000000E+20
 35
-1.00000000000000E+20
146
0.0
 13
0.0
 23
0.0
 33
0.0
 16
1.0
 26
0.0
 36
0.0
 17
0.0
 27
1.0
 37
0.0
 76
     0
330
1B
  0
LAYOUT
  5
26
102
{ACAD_REACTORS
330
1A
102
}
330
1A
100
AcDbPlotSettings
  1

  2
none_device
  4

  6

 40
0.0
 41
0.0
 42
0.0
 43
0.0
 44
0.0
 45
0.0
 46
0.0
 47
0.0
 48
0.0
 49
0.0
140
0.0
141
0.0
142
1.0
143
1.0
 70
   688
 72
     0
 73
     0
 74
     5
  7

 75
    16
147
1.0
148
0.0
149
0.0
100
AcDbLayout
  1
Layout2
 70
     1
 71
     2
 10
0.0
 20
0.0
 11
0.0
 21
0.0
 12
0.0
 22
0.0
 32
0.0
 14
0.0
 24
0.0
 34
0.0
 15
0.0
 25
0.0
 35
0.0
146
0.0
 13
0.0
 23
0.0
 33
0.0
 16
1.0
 26
0.0
 36
0.0
 17
0.0
 27
1.0
 37
0.0
 76
     0
330
23
  0
LAYOUT
  5
22
102
{ACAD_REACTORS
330
1A
102
}
330
1A
100
AcDbPlotSettings
  1

  2
none_device
  4

  6

 40
0.0
 41
0.0
 42
0.0
 43
0.0
 44
0.0
 45
0.0
 46
0.0
 47
0.0
 48
0.0
 49
0.0
140
0.0
141
0.0
142
1.0
143
1.0
 70
  1712
 72
     0
 73
     0
 74
     0
  7

 75
     0
147
1.0
148
0.0
149
0.0
100
AcDbLayout
  1
Model
 70
     1
 71
     0
 10
0.0
 20
0.0
 11
12.0
 21
9.0
 12
0.0
 22
0.0
 32
0.0
 14
37.01609343609776
 24
439.1601102983129
 34
0.0
 15
592.0160934360978
 25
840.1601102983129
 35
0.0
146
0.0
 13
0.0
 23
0.0
 33
0.0
 16
1.0
 26
0.0
 36
0.0
 17
0.0
 27
1.0
 37
0.0
 76
     0
330
1F
331
29
  0
MATERIAL
  5
3D
102
{ACAD_REACTORS
330
3B
102
}
102
{ACAD_XDICTIONARY
360
2A8
102
}
330
3B
100
AcDbMaterial
  1
ByBlock
  0
MATERIAL
  5
3C
102
{ACAD_REACTORS
330
3B
102
}
102
{ACAD_XDICTIONARY
360
2A6
102
}
330
3B
100
AcDbMaterial
  1
ByLayer
  0
MATERIAL
  5
3E
102
{ACAD_REACTORS
330
3B
102
}
102
{ACAD_XDICTIONARY
360
2AA
102
}
330
3B
100
AcDbMaterial
  1
Global
  0
MLINESTYLE
  5
18
102
{ACAD_REACTORS
330
17
102
}
330
17
100
AcDbMlineStyle
  2
Standard
 70
     0
  3

 62
   256
 51
90.0
 52
90.0
 71
     2
 49
0.5
 62
   256
  6
BYLAYER
 49
-0.5
 62
   256
  6
BYLAYER
  0
ACDBPLACEHOLDER
  5
F
102
{ACAD_REACTORS
330
E
102
}
330
E
  0
VISUALSTYLE
  5
2F
102
{ACAD_REACTORS
330
2A
102
}
102
{ACAD_XDICTIONARY
360
28E
102
}
330
2A
100
AcDbVisualStyle
  2
2dWireframe
 70
     4
 71
     0
 72
     2
 73
     0
 90
        0
 40
-0.6
 41
-30.0
 62
     5
 63
     7
 74
     1
 91
        4
 64
     7
 65
   257
 75
     1
175
     1
 42
1.0
 92
        0
 66
   257
 43
1.0
 76
     1
 77
     6
 78
     2
 67
     7
 79
     5
170
     0
171
     0
290
     0
174
     0
 93
        1
 44
0.0
173
     0
291
     0
 45
0.0
1001
ACAD
1000
AcDbSavedByObjectVersion
1070
     0
  0
VISUALSTYLE
  5
31
102
{ACAD_REACTORS
330
2A
102
}
102
{ACAD_XDICTIONARY
360
292
102
}
330
2A
100
AcDbVisualStyle
  2
3D Hidden
 70
     6
 71
     1
 72
     2
 73
     2
 90
        0
 40
-0.6
 41
-30.0
 62
     5
 63
     7
 74
     2
 91
        2
 64
     7
 65
   257
 75
     2
175
     1
 42
40.0
 92
        0
 66
   257
 43
1.0
 76
     1
 77
     6
 78
     2
 67
     7
 79
     3
170
     0
171
     0
290
     0
174
     0
 93
        1
 44
0.0
173
     0
291
     0
 45
0.0
1001
ACAD
1000
AcDbSavedByObjectVersion
1070
     0
  0
VISUALSTYLE
  5
30
102
{ACAD_REACTORS
330
2A
102
}
102
{ACAD_XDICTIONARY
360
290
102
}
330
2A
100
AcDbVisualStyle
  2
3dWireframe
 70
     5
 71
     0
 72
     2
 73
     0
 90
        0
 40
-0.6
 41
-30.0
 62
     5
 63
     7
 74
     1
 91
        4
 64
     7
 65
   257
 75
     1
175
     1
 42
1.0
 92
        0
 66
   257
 43
1.0
 76
     1
 77
     6
 78
     2
 67
     7
 79
     5
170
     0
171
     0
290
     0
174
     0
 93
        1
 44
0.0
173
     0
291
     0
 45
0.0
1001
ACAD
1000
AcDbSavedByObjectVersion
1070
     0
  0
VISUALSTYLE
  5
32
102
{ACAD_REACTORS
330
2A
102
}
102
{ACAD_XDICTIONARY
360
294
102
}
330
2A
100
AcDbVisualStyle
  2
Basic
 70
     7
 71
     1
 72
     0
 73
     1
 90
        0
 40
-0.6
 41
-30.0
 62
     5
 63
     7
 74
     0
 91
        4
 64
     7
 65
   257
 75
     1
175
     1
 42
1.0
 92
        8
 66
     7
 43
1.0
 76
     1
 77
     6
 78
     2
 67
     7
 79
     5
170
     0
171
     0
290
     0
174
     0
 93
        1
 44
0.0
173
     0
291
     1
 45
0.0
1001
ACAD
1000
AcDbSavedByObjectVersion
1070
     0
  0
VISUALSTYLE
  5
36
102
{ACAD_REACTORS
330
2A
102
}
102
{ACAD_XDICTIONARY
360
29C
102
}
330
2A
100
AcDbVisualStyle
  2
Brighten
 70
    12
 71
     2
 72
     2
 73
     0
 90
        0
 40
-0.6
 41
-30.0
 62
     5
 63
     7
 74
     1
 91
        4
 64
     7
 65
   257
 75
     1
175
     1
 42
1.0
 92
        8
 66
     7
 43
1.0
 76
     1
 77
     6
 78
     2
 67
     7
 79
     5
170
     0
171
     0
290
     0
174
     0
 93
        1
 44
50.0
173
     0
291
     1
 45
0.0
1001
ACAD
1000
AcDbSavedByObjectVersion
1070
     0
  0
VISUALSTYLE
  5
3A
102
{ACAD_REACTORS
330
2A
102
}
102
{ACAD_XDICTIONARY
360
2A4
102
}
330
2A
100
AcDbVisualStyle
  2
ColorChange
 70
    16
 71
     2
 72
     2
 73
     3
 90
        0
 40
-0.6
 41
-30.0
 62
     5
 63
     8
 74
     1
 91
        4
 64
     7
 65
   257
 75
     1
175
     1
 42
1.0
 92
        8
 66
     8
 43
1.0
 76
     1
 77
     6
 78
     2
 67
     7
 79
     5
170
     0
171
     0
290
     0
174
     0
 93
        1
 44
0.0
173
     0
291
     1
 45
0.0
1001
ACAD
1000
AcDbSavedByObjectVersion
1070
     0
  0
VISUALSTYLE
  5
34
102
{ACAD_REACTORS
330
2A
102
}
102
{ACAD_XDICTIONARY
360
298
102
}
330
2A
100
AcDbVisualStyle
  2
Conceptual
 70
     9
 71
     3
 72
     2
 73
     0
 90
        0
 40
-0.6
 41
-30.0
 62
     5
 63
     7
 74
     2
 91
        2
 64
     7
 65
   257
 75
     1
175
     1
 42
40.0
 92
        8
 66
     7
 43
1.0
 76
     1
 77
     6
 78
     2
 67
     7
 79
     3
170
     0
171
     0
290
     0
174
     0
 93
        1
 44
0.0
173
     0
291
     0
 45
0.0
1001
ACAD
1000
AcDbSavedByObjectVersion
1070
     0
  0
VISUALSTYLE
  5
35
102
{ACAD_REACTORS
330
2A
102
}
102
{ACAD_XDICTIONARY
360
29A
102
}
330
2A
100
AcDbVisualStyle
  2
Dim
 70
    11
 71
     2
 72
     2
 73
     0
 90
        0
 40
-0.6
 41
-30.0
 62
     5
 63
     7
 74
     1
 91
        4
 64
     7
 65
   257
 75
     1
175
     1
 42
1.0
 92
        8
 66
     7
 43
1.0
 76
     1
 77
     6
 78
     2
 67
     7
 79
     5
170
     0
171
     0
290
     0
174
     0
 93
        1
 44
-50.0
173
     0
291
     1
 45
0.0
1001
ACAD
1000
AcDbSavedByObjectVersion
1070
     0
  0
VISUALSTYLE
  5
39
102
{ACAD_REACTORS
330
2A
102
}
102
{ACAD_XDICTIONARY
360
2A2
102
}
330
2A
100
AcDbVisualStyle
  2
Facepattern
 70
    15
 71
     2
 72
     2
 73
     0
 90
        0
 40
-0.6
 41
-30.0
 62
     5
 63
     7
 74
     1
 91
        4
 64
     7
 65
   257
 75
     1
175
     1
 42
1.0
 92
        8
 66
     7
 43
1.0
 76
     1
 77
     6
 78
     2
 67
     7
 79
     5
170
     0
171
     0
290
     0
174
     0
 93
        1
 44
0.0
173
     0
291
     1
 45
0.0
1001
ACAD
1000
AcDbSavedByObjectVersion
1070
     0
  0
VISUALSTYLE
  5
2B
102
{ACAD_REACTORS
330
2A
102
}
102
{ACAD_XDICTIONARY
360
286
102
}
330
2A
100
AcDbVisualStyle
  2
Flat
 70
     0
 71
     2
 72
     1
 73
     1
 90
        2
 40
-0.6
 41
30.0
 62
     5
 63
     7
 74
     0
 91
        4
 64
     7
 65
   257
 75
     1
175
     1
 42
1.0
 92
        8
 66
     7
 43
1.0
 76
     1
 77
     6
 78
     2
 67
     7
 79
     5
170
     0
171
     0
290
     0
174
     0
 93
       13
 44
0.0
173
     0
291
     1
 45
0.0
1001
ACAD
1000
AcDbSavedByObjectVersion
1070
     0
  0
VISUALSTYLE
  5
2C
102
{ACAD_REACTORS
330
2A
102
}
102
{ACAD_XDICTIONARY
360
288
102
}
330
2A
100
AcDbVisualStyle
  2
FlatWithEdges
 70
     1
 71
     2
 72
     1
 73
     1
 90
        2
 40
-0.6
 41
30.0
 62
     5
 63
     7
 74
     1
 91
        4
 64
     7
 65
   257
 75
     1
175
     1
 42
1.0
 92
        0
 66
   257
 43
1.0
 76
     1
 77
     6
 78
     2
 67
     7
 79
     5
170
     0
171
     0
290
     0
174
     0
 93
       13
 44
0.0
173
     0
291
     1
 45
0.0
1001
ACAD
1000
AcDbSavedByObjectVersion
1070
     0
  0
VISUALSTYLE
  5
2D
102
{ACAD_REACTORS
330
2A
102
}
102
{ACAD_XDICTIONARY
360
28A
102
}
330
2A
100
AcDbVisualStyle
  2
Gouraud
 70
     2
 71
     2
 72
     2
 73
     1
 90
        2
 40
-0.6
 41
30.0
 62
     5
 63
     7
 74
     0
 91
        4
 64
     7
 65
   257
 75
     1
175
     1
 42
1.0
 92
        0
 66
     7
 43
1.0
 76
     1
 77
     6
 78
     2
 67
     7
 79
     5
170
     0
171
     0
290
     0
174
     0
 93
       13
 44
0.0
173
     0
291
     1
 45
0.0
1001
ACAD
1000
AcDbSavedByObjectVersion
1070
     0
  0
VISUALSTYLE
  5
2E
102
{ACAD_REACTORS
330
2A
102
}
102
{ACAD_XDICTIONARY
360
28C
102
}
330
2A
100
AcDbVisualStyle
  2
GouraudWithEdges
 70
     3
 71
     2
 72
     2
 73
     1
 90
        2
 40
-0.6
 41
30.0
 62
     5
 63
     7
 74
     1
 91
        4
 64
     7
 65
   257
 75
     1
175
     1
 42
1.0
 92
        0
 66
   257
 43
1.0
 76
     1
 77
     6
 78
     2
 67
     7
 79
     5
170
     0
171
     0
290
     0
174
     0
 93
       13
 44
0.0
173
     0
291
     1
 45
0.0
1001
ACAD
1000
AcDbSavedByObjectVersion
1070
     0
  0
VISUALSTYLE
  5
38
102
{ACAD_REACTORS
330
2A
102
}
102
{ACAD_XDICTIONARY
360
2A0
102
}
330
2A
100
AcDbVisualStyle
  2
Linepattern
 70
    14
 71
     2
 72
     2
 73
     0
 90
        0
 40
-0.6
 41
-30.0
 62
     5
 63
     7
 74
     1
 91
        4
 64
     7
 65
   257
 75
     7
175
     7
 42
1.0
 92
        8
 66
     7
 43
1.0
 76
     1
 77
     6
 78
     2
 67
     7
 79
     5
170
     0
171
     0
290
     0
174
     0
 93
        1
 44
0.0
173
     0
291
     1
 45
0.0
1001
ACAD
1000
AcDbSavedByObjectVersion
1070
     0
  0
VISUALSTYLE
  5
33
102
{ACAD_REACTORS
330
2A
102
}
102
{ACAD_XDICTIONARY
360
296
102
}
330
2A
100
AcDbVisualStyle
  2
Realistic
 70
     8
 71
     2
 72
     2
 73
     0
 90
        0
 40
-0.6
 41
-30.0
 62
     5
 63
     7
 74
     1
 91
        0
 64
     7
 65
   257
 75
     1
175
     1
 42
1.0
 92
        8
 66
     8
 43
1.0
 76
     1
 77
     6
 78
     2
 67
     7
 79
     5
170
     0
171
     0
290
     0
174
     0
 93
       13
 44
0.0
173
     0
291
     0
 45
0.0
1001
ACAD
1000
AcDbSavedByObjectVersion
1070
     0
  0
VISUALSTYLE
  5
37
102
{ACAD_REACTORS
330
2A
102
}
102
{ACAD_XDICTIONARY
360
29E
102
}
330
2A
100
AcDbVisualStyle
  2
Thicken
 70
    13
 71
     2
 72
     2
 73
     0
 90
        0
 40
-0.6
 41
-30.0
 62
     5
 63
     7
 74
     1
 91
        4
 64
     7
 65
   257
 75
     1
175
     1
 42
1.0
 92
       12
 66
     7
 43
1.0
 76
     1
 77
     6
 78
     2
 67
     7
 79
     5
170
     0
171
     0
290
     0
174
     0
 93
        1
 44
0.0
173
     0
291
     1
 45
0.0
1001
ACAD
1000
AcDbSavedByObjectVersion
1070
     0
  0
DICTIONARYVAR
  5
284
102
{ACAD_REACTORS
330
281
102
}
330
281
100
DictionaryVariables
280
     0
  1
2
  0
DICTIONARYVAR
  5
285
102
{ACAD_REACTORS
330
281
102
}
330
281
100
DictionaryVariables
280
     0
  1
1
  0
DICTIONARY
  5
2A8
330
3D
100
AcDbDictionary
280
     1
281
     1
  3
ACAD_XREC_ROUNDTRIP
360
2A9
  0
DICTIONARY
  5
2A6
330
3C
100
AcDbDictionary
280
     1
281
     1
  3
ACAD_XREC_ROUNDTRIP
360
2A7
  0
DICTIONARY
  5
2AA
330
3E
100
AcDbDictionary
280
     1
281
     1
  3
ACAD_XREC_ROUNDTRIP
360
2AB
  0
DICTIONARY
  5
28E
330
2F
100
AcDbDictionary
280
     1
281
     1
  3
ACAD_XREC_ROUNDTRIP
360
28F
  0
DICTIONARY
  5
292
330
31
100
AcDbDictionary
280
     1
281
     1
  3
ACAD_XREC_ROUNDTRIP
360
293
  0
DICTIONARY
  5
290
330
30
100
AcDbDictionary
280
     1
281
     1
  3
ACAD_XREC_ROUNDTRIP
360
291
  0
DICTIONARY
  5
294
330
32
100
AcDbDictionary
280
     1
281
     1
  3
ACAD_XREC_ROUNDTRIP
360
295
  0
DICTIONARY
  5
29C
330
36
100
AcDbDictionary
280
     1
281
     1
  3
ACAD_XREC_ROUNDTRIP
360
29D
  0
DICTIONARY
  5
2A4
330
3A
100
AcDbDictionary
280
     1
281
     1
  3
ACAD_XREC_ROUNDTRIP
360
2A5
  0
DICTIONARY
  5
298
330
34
100
AcDbDictionary
280
     1
281
     1
  3
ACAD_XREC_ROUNDTRIP
360
299
  0
DICTIONARY
  5
29A
330
35
100
AcDbDictionary
280
     1
281
     1
  3
ACAD_XREC_ROUNDTRIP
360
29B
  0
DICTIONARY
  5
2A2
330
39
100
AcDbDictionary
280
     1
281
     1
  3
ACAD_XREC_ROUNDTRIP
360
2A3
  0
DICTIONARY
  5
286
330
2B
100
AcDbDictionary
280
     1
281
     1
  3
ACAD_XREC_ROUNDTRIP
360
287
  0
DICTIONARY
  5
288
330
2C
100
AcDbDictionary
280
     1
281
     1
  3
ACAD_XREC_ROUNDTRIP
360
289
  0
DICTIONARY
  5
28A
330
2D
100
AcDbDictionary
280
     1
281
     1
  3
ACAD_XREC_ROUNDTRIP
360
28B
  0
DICTIONARY
  5
28C
330
2E
100
AcDbDictionary
280
     1
281
     1
  3
ACAD_XREC_ROUNDTRIP
360
28D
  0
DICTIONARY
  5
2A0
330
38
100
AcDbDictionary
280
     1
281
     1
  3
ACAD_XREC_ROUNDTRIP
360
2A1
  0
DICTIONARY
  5
296
330
33
100
AcDbDictionary
280
     1
281
     1
  3
ACAD_XREC_ROUNDTRIP
360
297
  0
DICTIONARY
  5
29E
330
37
100
AcDbDictionary
280
     1
281
     1
  3
ACAD_XREC_ROUNDTRIP
360
29F
  0
XRECORD
  5
2A9
102
{ACAD_REACTORS
330
2A8
102
}
330
2A8
100
AcDbXrecord
280
     1
102
MATERIAL
148
0.0
149
0.0
149
0.0
 93
        0
 94
      127
282
     0
 72
     1
 77
     1
171
     1
175
     1
179
     1
273
     0
  0
XRECORD
  5
2A7
102
{ACAD_REACTORS
330
2A6
102
}
330
2A6
100
AcDbXrecord
280
     1
102
MATERIAL
148
0.0
149
0.0
149
0.0
 93
        0
 94
      127
282
     0
 72
     1
 77
     1
171
     1
175
     1
179
     1
273
     0
  0
XRECORD
  5
2AB
102
{ACAD_REACTORS
330
2AA
102
}
330
2AA
100
AcDbXrecord
280
     1
102
MATERIAL
148
0.0
149
0.0
149
0.0
 93
        0
 94
      127
282
     0
 72
     1
 77
     1
171
     1
175
     1
179
     1
273
     0
  0
XRECORD
  5
28F
102
{ACAD_REACTORS
330
28E
102
}
330
28E
100
AcDbXrecord
280
     1
102
RTVSPropertyOp0
 70
     1
102
RTVSPropertyOp1
 70
     1
102
RTVSPropertyOp2
 70
     1
102
RTVSPropertyOp3
 70
     1
102
RTVSPropertyOp4
 70
     1
102
RTVSPropertyOp5
 70
     1
102
RTVSPropertyOp6
 70
     1
102
RTVSPropertyOp7
 70
     1
102
RTVSPropertyOp8
 70
     1
102
RTVSPropertyOp9
 70
     1
102
RTVSPropertyOp10
 70
     1
102
RTVSPropertyOp11
 70
     1
102
RTVSPropertyOp12
 70
     1
102
RTVSPropertyOp13
 70
     1
102
RTVSPropertyOp14
 70
     1
102
RTVSPropertyOp15
 70
     1
102
RTVSPropertyOp16
 70
     1
102
RTVSPropertyOp17
 70
     1
102
RTVSPropertyOp18
 70
     1
102
RTVSPropertyOp19
 70
     1
102
RTVSPropertyOp20
 70
     1
102
RTVSPropertyOp21
 70
     1
102
RTVSPropertyOp22
 70
     1
102
RTVSPropertyOp23
 70
     1
102
RTVSPropertyOp24
 70
     1
102
RTVSPropertyOp25
 70
     1
102
RTVSPropertyOp26
 70
     1
102
RTVSPropertyOp27
 70
     1
102
RTVSPropertyOp28
 70
     1
102
RTVSPropertyOp29
 70
     1
102
RTVSPropertyOp30
 70
     1
102
RTVSPropertyOp31
 70
     1
102
RTVSPropertyOp32
 70
     1
  0
XRECORD
  5
293
102
{ACAD_REACTORS
330
292
102
}
330
292
100
AcDbXrecord
280
     1
102
RTVSPropertyOp0
 70
     1
102
RTVSPropertyOp1
 70
     1
102
RTVSPropertyOp2
 70
     1
102
RTVSPropertyOp3
 70
     1
102
RTVSPropertyOp4
 70
     1
102
RTVSPropertyOp5
 70
     1
102
RTVSPropertyOp6
 70
     1
102
RTVSPropertyOp7
 70
     1
102
RTVSPropertyOp8
 70
     1
102
RTVSPropertyOp9
 70
     1
102
RTVSPropertyOp10
 70
     1
102
RTVSPropertyOp11
 70
     1
102
RTVSPropertyOp12
 70
     1
102
RTVSPropertyOp13
 70
     1
102
RTVSPropertyOp14
 70
     1
102
RTVSPropertyOp15
 70
     1
102
RTVSPropertyOp16
 70
     1
102
RTVSPropertyOp17
 70
     1
102
RTVSPropertyOp18
 70
     1
102
RTVSPropertyOp19
 70
     1
102
RTVSPropertyOp20
 70
     1
102
RTVSPropertyOp21
 70
     1
102
RTVSPropertyOp22
 70
     1
102
RTVSPropertyOp23
 70
     1
102
RTVSPropertyOp24
 70
     1
102
RTVSPropertyOp25
 70
     1
102
RTVSPropertyOp26
 70
     1
102
RTVSPropertyOp27
 70
     1
102
RTVSPropertyOp28
 70
     1
102
RTVSPropertyOp29
 70
     1
102
RTVSPropertyOp30
 70
     1
102
RTVSPropertyOp31
 70
     1
102
RTVSPropertyOp32
 70
     1
  0
XRECORD
  5
291
102
{ACAD_REACTORS
330
290
102
}
330
290
100
AcDbXrecord
280
     1
102
RTVSPropertyOp0
 70
     1
102
RTVSPropertyOp1
 70
     1
102
RTVSPropertyOp2
 70
     1
102
RTVSPropertyOp3
 70
     1
102
RTVSPropertyOp4
 70
     1
102
RTVSPropertyOp5
 70
     1
102
RTVSPropertyOp6
 70
     1
102
RTVSPropertyOp7
 70
     1
102
RTVSPropertyOp8
 70
     1
102
RTVSPropertyOp9
 70
     1
102
RTVSPropertyOp10
 70
     1
102
RTVSPropertyOp11
 70
     1
102
RTVSPropertyOp12
 70
     1
102
RTVSPropertyOp13
 70
     1
102
RTVSPropertyOp14
 70
     1
102
RTVSPropertyOp15
 70
     1
102
RTVSPropertyOp16
 70
     1
102
RTVSPropertyOp17
 70
     1
102
RTVSPropertyOp18
 70
     1
102
RTVSPropertyOp19
 70
     1
102
RTVSPropertyOp20
 70
     1
102
RTVSPropertyOp21
 70
     1
102
RTVSPropertyOp22
 70
     1
102
RTVSPropertyOp23
 70
     1
102
RTVSPropertyOp24
 70
     1
102
RTVSPropertyOp25
 70
     1
102
RTVSPropertyOp26
 70
     1
102
RTVSPropertyOp27
 70
     1
102
RTVSPropertyOp28
 70
     1
102
RTVSPropertyOp29
 70
     1
102
RTVSPropertyOp30
 70
     1
102
RTVSPropertyOp31
 70
     1
102
RTVSPropertyOp32
 70
     1
  0
XRECORD
  5
295
102
{ACAD_REACTORS
330
294
102
}
330
294
100
AcDbXrecord
280
     1
102
RTVSPropertyOp0
 70
     1
102
RTVSPropertyOp1
 70
     1
102
RTVSPropertyOp2
 70
     1
102
RTVSPropertyOp3
 70
     1
102
RTVSPropertyOp4
 70
     1
102
RTVSPropertyOp5
 70
     1
102
RTVSPropertyOp6
 70
     1
102
RTVSPropertyOp7
 70
     1
102
RTVSPropertyOp8
 70
     1
102
RTVSPropertyOp9
 70
     1
102
RTVSPropertyOp10
 70
     1
102
RTVSPropertyOp11
 70
     1
102
RTVSPropertyOp12
 70
     1
102
RTVSPropertyOp13
 70
     1
102
RTVSPropertyOp14
 70
     1
102
RTVSPropertyOp15
 70
     1
102
RTVSPropertyOp16
 70
     1
102
RTVSPropertyOp17
 70
     1
102
RTVSPropertyOp18
 70
     1
102
RTVSPropertyOp19
 70
     1
102
RTVSPropertyOp20
 70
     1
102
RTVSPropertyOp21
 70
     1
102
RTVSPropertyOp22
 70
     1
102
RTVSPropertyOp23
 70
     1
102
RTVSPropertyOp24
 70
     1
102
RTVSPropertyOp25
 70
     1
102
RTVSPropertyOp26
 70
     1
102
RTVSPropertyOp27
 70
     1
102
RTVSPropertyOp28
 70
     1
102
RTVSPropertyOp29
 70
     1
102
RTVSPropertyOp30
 70
     1
102
RTVSPropertyOp31
 70
     1
102
RTVSPropertyOp32
 70
     1
  0
XRECORD
  5
29D
102
{ACAD_REACTORS
330
29C
102
}
330
29C
100
AcDbXrecord
280
     1
102
RTVSPropertyOp0
 70
     1
102
RTVSPropertyOp1
 70
     1
102
RTVSPropertyOp2
 70
     1
102
RTVSPropertyOp3
 70
     1
102
RTVSPropertyOp4
 70
     1
102
RTVSPropertyOp5
 70
     1
102
RTVSPropertyOp6
 70
     1
102
RTVSPropertyOp7
 70
     1
102
RTVSPropertyOp8
 70
     1
102
RTVSPropertyOp9
 70
     1
102
RTVSPropertyOp10
 70
     1
102
RTVSPropertyOp11
 70
     1
102
RTVSPropertyOp12
 70
     1
102
RTVSPropertyOp13
 70
     1
102
RTVSPropertyOp14
 70
     1
102
RTVSPropertyOp15
 70
     1
102
RTVSPropertyOp16
 70
     1
102
RTVSPropertyOp17
 70
     1
102
RTVSPropertyOp18
 70
     1
102
RTVSPropertyOp19
 70
     1
102
RTVSPropertyOp20
 70
     1
102
RTVSPropertyOp21
 70
     1
102
RTVSPropertyOp22
 70
     1
102
RTVSPropertyOp23
 70
     1
102
RTVSPropertyOp24
 70
     1
102
RTVSPropertyOp25
 70
     1
102
RTVSPropertyOp26
 70
     1
102
RTVSPropertyOp27
 70
     1
102
RTVSPropertyOp28
 70
     1
102
RTVSPropertyOp29
 70
     1
102
RTVSPropertyOp30
 70
     1
102
RTVSPropertyOp31
 70
     1
102
RTVSPropertyOp32
 70
     1
  0
XRECORD
  5
2A5
102
{ACAD_REACTORS
330
2A4
102
}
330
2A4
100
AcDbXrecord
280
     1
102
RTVSPropertyOp0
 70
     1
102
RTVSPropertyOp1
 70
     1
102
RTVSPropertyOp2
 70
     1
102
RTVSPropertyOp3
 70
     1
102
RTVSPropertyOp4
 70
     1
102
RTVSPropertyOp5
 70
     1
102
RTVSPropertyOp6
 70
     1
102
RTVSPropertyOp7
 70
     1
102
RTVSPropertyOp8
 70
     1
102
RTVSPropertyOp9
 70
     1
102
RTVSPropertyOp10
 70
     1
102
RTVSPropertyOp11
 70
     1
102
RTVSPropertyOp12
 70
     1
102
RTVSPropertyOp13
 70
     1
102
RTVSPropertyOp14
 70
     1
102
RTVSPropertyOp15
 70
     1
102
RTVSPropertyOp16
 70
     1
102
RTVSPropertyOp17
 70
     1
102
RTVSPropertyOp18
 70
     1
102
RTVSPropertyOp19
 70
     1
102
RTVSPropertyOp20
 70
     1
102
RTVSPropertyOp21
 70
     1
102
RTVSPropertyOp22
 70
     1
102
RTVSPropertyOp23
 70
     1
102
RTVSPropertyOp24
 70
     1
102
RTVSPropertyOp25
 70
     1
102
RTVSPropertyOp26
 70
     1
102
RTVSPropertyOp27
 70
     1
102
RTVSPropertyOp28
 70
     1
102
RTVSPropertyOp29
 70
     1
102
RTVSPropertyOp30
 70
     1
102
RTVSPropertyOp31
 70
     1
102
RTVSPropertyOp32
 70
     1
  0
XRECORD
  5
299
102
{ACAD_REACTORS
330
298
102
}
330
298
100
AcDbXrecord
280
     1
102
RTVSPropertyOp0
 70
     1
102
RTVSPropertyOp1
 70
     1
102
RTVSPropertyOp2
 70
     1
102
RTVSPropertyOp3
 70
     1
102
RTVSPropertyOp4
 70
     1
102
RTVSPropertyOp5
 70
     1
102
RTVSPropertyOp6
 70
     1
102
RTVSPropertyOp7
 70
     1
102
RTVSPropertyOp8
 70
     1
102
RTVSPropertyOp9
 70
     1
102
RTVSPropertyOp10
 70
     1
102
RTVSPropertyOp11
 70
     1
102
RTVSPropertyOp12
 70
     1
102
RTVSPropertyOp13
 70
     1
102
RTVSPropertyOp14
 70
     1
102
RTVSPropertyOp15
 70
     1
102
RTVSPropertyOp16
 70
     1
102
RTVSPropertyOp17
 70
     1
102
RTVSPropertyOp18
 70
     1
102
RTVSPropertyOp19
 70
     1
102
RTVSPropertyOp20
 70
     1
102
RTVSPropertyOp21
 70
     1
102
RTVSPropertyOp22
 70
     1
102
RTVSPropertyOp23
 70
     1
102
RTVSPropertyOp24
 70
     1
102
RTVSPropertyOp25
 70
     1
102
RTVSPropertyOp26
 70
     1
102
RTVSPropertyOp27
 70
     1
102
RTVSPropertyOp28
 70
     1
102
RTVSPropertyOp29
 70
     1
102
RTVSPropertyOp30
 70
     1
102
RTVSPropertyOp31
 70
     1
102
RTVSPropertyOp32
 70
     1
  0
XRECORD
  5
29B
102
{ACAD_REACTORS
330
29A
102
}
330
29A
100
AcDbXrecord
280
     1
102
RTVSPropertyOp0
 70
     1
102
RTVSPropertyOp1
 70
     1
102
RTVSPropertyOp2
 70
     1
102
RTVSPropertyOp3
 70
     1
102
RTVSPropertyOp4
 70
     1
102
RTVSPropertyOp5
 70
     1
102
RTVSPropertyOp6
 70
     1
102
RTVSPropertyOp7
 70
     1
102
RTVSPropertyOp8
 70
     1
102
RTVSPropertyOp9
 70
     1
102
RTVSPropertyOp10
 70
     1
102
RTVSPropertyOp11
 70
     1
102
RTVSPropertyOp12
 70
     1
102
RTVSPropertyOp13
 70
     1
102
RTVSPropertyOp14
 70
     1
102
RTVSPropertyOp15
 70
     1
102
RTVSPropertyOp16
 70
     1
102
RTVSPropertyOp17
 70
     1
102
RTVSPropertyOp18
 70
     1
102
RTVSPropertyOp19
 70
     1
102
RTVSPropertyOp20
 70
     1
102
RTVSPropertyOp21
 70
     1
102
RTVSPropertyOp22
 70
     1
102
RTVSPropertyOp23
 70
     1
102
RTVSPropertyOp24
 70
     1
102
RTVSPropertyOp25
 70
     1
102
RTVSPropertyOp26
 70
     1
102
RTVSPropertyOp27
 70
     1
102
RTVSPropertyOp28
 70
     1
102
RTVSPropertyOp29
 70
     1
102
RTVSPropertyOp30
 70
     1
102
RTVSPropertyOp31
 70
     1
102
RTVSPropertyOp32
 70
     1
  0
XRECORD
  5
2A3
102
{ACAD_REACTORS
330
2A2
102
}
330
2A2
100
AcDbXrecord
280
     1
102
RTVSPropertyOp0
 70
     1
102
RTVSPropertyOp1
 70
     1
102
RTVSPropertyOp2
 70
     1
102
RTVSPropertyOp3
 70
     1
102
RTVSPropertyOp4
 70
     1
102
RTVSPropertyOp5
 70
     1
102
RTVSPropertyOp6
 70
     1
102
RTVSPropertyOp7
 70
     1
102
RTVSPropertyOp8
 70
     1
102
RTVSPropertyOp9
 70
     1
102
RTVSPropertyOp10
 70
     1
102
RTVSPropertyOp11
 70
     1
102
RTVSPropertyOp12
 70
     1
102
RTVSPropertyOp13
 70
     1
102
RTVSPropertyOp14
 70
     1
102
RTVSPropertyOp15
 70
     1
102
RTVSPropertyOp16
 70
     1
102
RTVSPropertyOp17
 70
     1
102
RTVSPropertyOp18
 70
     1
102
RTVSPropertyOp19
 70
     1
102
RTVSPropertyOp20
 70
     1
102
RTVSPropertyOp21
 70
     1
102
RTVSPropertyOp22
 70
     1
102
RTVSPropertyOp23
 70
     1
102
RTVSPropertyOp24
 70
     1
102
RTVSPropertyOp25
 70
     1
102
RTVSPropertyOp26
 70
     1
102
RTVSPropertyOp27
 70
     1
102
RTVSPropertyOp28
 70
     1
102
RTVSPropertyOp29
 70
     1
102
RTVSPropertyOp30
 70
     1
102
RTVSPropertyOp31
 70
     1
102
RTVSPropertyOp32
 70
     1
  0
XRECORD
  5
287
102
{ACAD_REACTORS
330
286
102
}
330
286
100
AcDbXrecord
280
     1
102
RTVSPropertyOp0
 70
     1
102
RTVSPropertyOp1
 70
     1
102
RTVSPropertyOp2
 70
     1
102
RTVSPropertyOp3
 70
     1
102
RTVSPropertyOp4
 70
     1
102
RTVSPropertyOp5
 70
     1
102
RTVSPropertyOp6
 70
     1
102
RTVSPropertyOp7
 70
     1
102
RTVSPropertyOp8
 70
     1
102
RTVSPropertyOp9
 70
     1
102
RTVSPropertyOp10
 70
     1
102
RTVSPropertyOp11
 70
     1
102
RTVSPropertyOp12
 70
     1
102
RTVSPropertyOp13
 70
     1
102
RTVSPropertyOp14
 70
     1
102
RTVSPropertyOp15
 70
     1
102
RTVSPropertyOp16
 70
     1
102
RTVSPropertyOp17
 70
     1
102
RTVSPropertyOp18
 70
     1
102
RTVSPropertyOp19
 70
     1
102
RTVSPropertyOp20
 70
     1
102
RTVSPropertyOp21
 70
     1
102
RTVSPropertyOp22
 70
     1
102
RTVSPropertyOp23
 70
     1
102
RTVSPropertyOp24
 70
     1
102
RTVSPropertyOp25
 70
     1
102
RTVSPropertyOp26
 70
     1
102
RTVSPropertyOp27
 70
     1
102
RTVSPropertyOp28
 70
     1
102
RTVSPropertyOp29
 70
     1
102
RTVSPropertyOp30
 70
     1
102
RTVSPropertyOp31
 70
     1
102
RTVSPropertyOp32
 70
     1
  0
XRECORD
  5
289
102
{ACAD_REACTORS
330
288
102
}
330
288
100
AcDbXrecord
280
     1
102
RTVSPropertyOp0
 70
     1
102
RTVSPropertyOp1
 70
     1
102
RTVSPropertyOp2
 70
     1
102
RTVSPropertyOp3
 70
     1
102
RTVSPropertyOp4
 70
     1
102
RTVSPropertyOp5
 70
     1
102
RTVSPropertyOp6
 70
     1
102
RTVSPropertyOp7
 70
     1
102
RTVSPropertyOp8
 70
     1
102
RTVSPropertyOp9
 70
     1
102
RTVSPropertyOp10
 70
     1
102
RTVSPropertyOp11
 70
     1
102
RTVSPropertyOp12
 70
     1
102
RTVSPropertyOp13
 70
     1
102
RTVSPropertyOp14
 70
     1
102
RTVSPropertyOp15
 70
     1
102
RTVSPropertyOp16
 70
     1
102
RTVSPropertyOp17
 70
     1
102
RTVSPropertyOp18
 70
     1
102
RTVSPropertyOp19
 70
     1
102
RTVSPropertyOp20
 70
     1
102
RTVSPropertyOp21
 70
     1
102
RTVSPropertyOp22
 70
     1
102
RTVSPropertyOp23
 70
     1
102
RTVSPropertyOp24
 70
     1
102
RTVSPropertyOp25
 70
     1
102
RTVSPropertyOp26
 70
     1
102
RTVSPropertyOp27
 70
     1
102
RTVSPropertyOp28
 70
     1
102
RTVSPropertyOp29
 70
     1
102
RTVSPropertyOp30
 70
     1
102
RTVSPropertyOp31
 70
     1
102
RTVSPropertyOp32
 70
     1
  0
XRECORD
  5
28B
102
{ACAD_REACTORS
330
28A
102
}
330
28A
100
AcDbXrecord
280
     1
102
RTVSPropertyOp0
 70
     1
102
RTVSPropertyOp1
 70
     1
102
RTVSPropertyOp2
 70
     1
102
RTVSPropertyOp3
 70
     1
102
RTVSPropertyOp4
 70
     1
102
RTVSPropertyOp5
 70
     1
102
RTVSPropertyOp6
 70
     1
102
RTVSPropertyOp7
 70
     1
102
RTVSPropertyOp8
 70
     1
102
RTVSPropertyOp9
 70
     1
102
RTVSPropertyOp10
 70
     1
102
RTVSPropertyOp11
 70
     1
102
RTVSPropertyOp12
 70
     1
102
RTVSPropertyOp13
 70
     1
102
RTVSPropertyOp14
 70
     1
102
RTVSPropertyOp15
 70
     1
102
RTVSPropertyOp16
 70
     1
102
RTVSPropertyOp17
 70
     1
102
RTVSPropertyOp18
 70
     1
102
RTVSPropertyOp19
 70
     1
102
RTVSPropertyOp20
 70
     1
102
RTVSPropertyOp21
 70
     1
102
RTVSPropertyOp22
 70
     1
102
RTVSPropertyOp23
 70
     1
102
RTVSPropertyOp24
 70
     1
102
RTVSPropertyOp25
 70
     1
102
RTVSPropertyOp26
 70
     1
102
RTVSPropertyOp27
 70
     1
102
RTVSPropertyOp28
 70
     1
102
RTVSPropertyOp29
 70
     1
102
RTVSPropertyOp30
 70
     1
102
RTVSPropertyOp31
 70
     1
102
RTVSPropertyOp32
 70
     1
  0
XRECORD
  5
28D
102
{ACAD_REACTORS
330
28C
102
}
330
28C
100
AcDbXrecord
280
     1
102
RTVSPropertyOp0
 70
     1
102
RTVSPropertyOp1
 70
     1
102
RTVSPropertyOp2
 70
     1
102
RTVSPropertyOp3
 70
     1
102
RTVSPropertyOp4
 70
     1
102
RTVSPropertyOp5
 70
     1
102
RTVSPropertyOp6
 70
     1
102
RTVSPropertyOp7
 70
     1
102
RTVSPropertyOp8
 70
     1
102
RTVSPropertyOp9
 70
     1
102
RTVSPropertyOp10
 70
     1
102
RTVSPropertyOp11
 70
     1
102
RTVSPropertyOp12
 70
     1
102
RTVSPropertyOp13
 70
     1
102
RTVSPropertyOp14
 70
     1
102
RTVSPropertyOp15
 70
     1
102
RTVSPropertyOp16
 70
     1
102
RTVSPropertyOp17
 70
     1
102
RTVSPropertyOp18
 70
     1
102
RTVSPropertyOp19
 70
     1
102
RTVSPropertyOp20
 70
     1
102
RTVSPropertyOp21
 70
     1
102
RTVSPropertyOp22
 70
     1
102
RTVSPropertyOp23
 70
     1
102
RTVSPropertyOp24
 70
     1
102
RTVSPropertyOp25
 70
     1
102
RTVSPropertyOp26
 70
     1
102
RTVSPropertyOp27
 70
     1
102
RTVSPropertyOp28
 70
     1
102
RTVSPropertyOp29
 70
     1
102
RTVSPropertyOp30
 70
     1
102
RTVSPropertyOp31
 70
     1
102
RTVSPropertyOp32
 70
     1
  0
XRECORD
  5
2A1
102
{ACAD_REACTORS
330
2A0
102
}
330
2A0
100
AcDbXrecord
280
     1
102
RTVSPropertyOp0
 70
     1
102
RTVSPropertyOp1
 70
     1
102
RTVSPropertyOp2
 70
     1
102
RTVSPropertyOp3
 70
     1
102
RTVSPropertyOp4
 70
     1
102
RTVSPropertyOp5
 70
     1
102
RTVSPropertyOp6
 70
     1
102
RTVSPropertyOp7
 70
     1
102
RTVSPropertyOp8
 70
     1
102
RTVSPropertyOp9
 70
     1
102
RTVSPropertyOp10
 70
     1
102
RTVSPropertyOp11
 70
     1
102
RTVSPropertyOp12
 70
     1
102
RTVSPropertyOp13
 70
     1
102
RTVSPropertyOp14
 70
     1
102
RTVSPropertyOp15
 70
     1
102
RTVSPropertyOp16
 70
     1
102
RTVSPropertyOp17
 70
     1
102
RTVSPropertyOp18
 70
     1
102
RTVSPropertyOp19
 70
     1
102
RTVSPropertyOp20
 70
     1
102
RTVSPropertyOp21
 70
     1
102
RTVSPropertyOp22
 70
     1
102
RTVSPropertyOp23
 70
     1
102
RTVSPropertyOp24
 70
     1
102
RTVSPropertyOp25
 70
     1
102
RTVSPropertyOp26
 70
     1
102
RTVSPropertyOp27
 70
     1
102
RTVSPropertyOp28
 70
     1
102
RTVSPropertyOp29
 70
     1
102
RTVSPropertyOp30
 70
     1
102
RTVSPropertyOp31
 70
     1
102
RTVSPropertyOp32
 70
     1
  0
XRECORD
  5
297
102
{ACAD_REACTORS
330
296
102
}
330
296
100
AcDbXrecord
280
     1
102
RTVSPropertyOp0
 70
     1
102
RTVSPropertyOp1
 70
     1
102
RTVSPropertyOp2
 70
     1
102
RTVSPropertyOp3
 70
     1
102
RTVSPropertyOp4
 70
     1
102
RTVSPropertyOp5
 70
     1
102
RTVSPropertyOp6
 70
     1
102
RTVSPropertyOp7
 70
     1
102
RTVSPropertyOp8
 70
     1
102
RTVSPropertyOp9
 70
     1
102
RTVSPropertyOp10
 70
     1
102
RTVSPropertyOp11
 70
     1
102
RTVSPropertyOp12
 70
     1
102
RTVSPropertyOp13
 70
     1
102
RTVSPropertyOp14
 70
     1
102
RTVSPropertyOp15
 70
     1
102
RTVSPropertyOp16
 70
     1
102
RTVSPropertyOp17
 70
     1
102
RTVSPropertyOp18
 70
     1
102
RTVSPropertyOp19
 70
     1
102
RTVSPropertyOp20
 70
     1
102
RTVSPropertyOp21
 70
     1
102
RTVSPropertyOp22
 70
     1
102
RTVSPropertyOp23
 70
     1
102
RTVSPropertyOp24
 70
     1
102
RTVSPropertyOp25
 70
     1
102
RTVSPropertyOp26
 70
     1
102
RTVSPropertyOp27
 70
     1
102
RTVSPropertyOp28
 70
     1
102
RTVSPropertyOp29
 70
     1
102
RTVSPropertyOp30
 70
     1
102
RTVSPropertyOp31
 70
     1
102
RTVSPropertyOp32
 70
     1
  0
XRECORD
  5
29F
102
{ACAD_REACTORS
330
29E
102
}
330
29E
100
AcDbXrecord
280
     1
102
RTVSPropertyOp0
 70
     1
102
RTVSPropertyOp1
 70
     1
102
RTVSPropertyOp2
 70
     1
102
RTVSPropertyOp3
 70
     1
102
RTVSPropertyOp4
 70
     1
102
RTVSPropertyOp5
 70
     1
102
RTVSPropertyOp6
 70
     1
102
RTVSPropertyOp7
 70
     1
102
RTVSPropertyOp8
 70
     1
102
RTVSPropertyOp9
 70
     1
102
RTVSPropertyOp10
 70
     1
102
RTVSPropertyOp11
 70
     1
102
RTVSPropertyOp12
 70
     1
102
RTVSPropertyOp13
 70
     1
102
RTVSPropertyOp14
 70
     1
102
RTVSPropertyOp15
 70
     1
102
RTVSPropertyOp16
 70
     1
102
RTVSPropertyOp17
 70
     1
102
RTVSPropertyOp18
 70
     1
102
RTVSPropertyOp19
 70
     1
102
RTVSPropertyOp20
 70
     1
102
RTVSPropertyOp21
 70
     1
102
RTVSPropertyOp22
 70
     1
102
RTVSPropertyOp23
 70
     1
102
RTVSPropertyOp24
 70
     1
102
RTVSPropertyOp25
 70
     1
102
RTVSPropertyOp26
 70
     1
102
RTVSPropertyOp27
 70
     1
102
RTVSPropertyOp28
 70
     1
102
RTVSPropertyOp29
 70
     1
102
RTVSPropertyOp30
 70
     1
102
RTVSPropertyOp31
 70
     1
102
RTVSPropertyOp32
 70
     1
  0
ENDSEC
  0
EOF
